<?xml version="1.0" standalone="no"?>
<!DOCTYPE svg PUBLIC "-//W3C//DTD SVG 1.1//EN" "http://www.w3.org/Graphics/SVG/1.1/DTD/svg11.dtd" >
<svg>
<metadata>
Created by FontForge 20090622 at Thu Aug 15 10:58:44 2019
 By deploy user
Copyright (c) 2014 by Katatrad Aksorn Co.,Ltd.. All rights reserved. This font is an exclusive license to True Digital Content &#38; Media Company Limited
</metadata>
<defs>
<font id="Anuyart-Light" horiz-adv-x="0" >
  <font-face 
    font-family="Anuyart Light"
    font-weight="300"
    font-stretch="normal"
    units-per-em="1000"
    panose-1="2 11 5 0 4 2 0 2 0 3"
    ascent="750"
    descent="-250"
    x-height="462"
    cap-height="650"
    bbox="-566 -367 1186 944"
    underline-thickness="30"
    underline-position="-20"
    unicode-range="U+000D-U+FB02"
  />
<missing-glyph horiz-adv-x="806" 
d="M747 0h-683v944h683v-944zM722 25v892h-633v-892h633z" />
    <glyph glyph-name="fi" unicode="fi" horiz-adv-x="537" 
d="M467 0h-61v420h-237v-420h-62v420h-68v42h68v71q0 126 117 126q53 0 93 -30l-19 -37q-24 22 -64 22q-65 0 -65 -77v-75h298v-462zM472 576h-70v74h70v-74z" />
    <glyph glyph-name="fl" unicode="fl" horiz-adv-x="530" 
d="M464 0h-61v601q-19 -12 -55 -12q-20 0 -54 13q-35 12 -57 12q-68 0 -68 -77v-75h129v-42h-129v-420h-62v420h-68v42h68v71q0 126 126 126q30 0 65 -13q34 -14 59 -14q48 0 107 22v-654z" />
    <glyph glyph-name="uni0E5A" unicode="&#xe2f;&#xe2f;" horiz-adv-x="663" 
d="M602 0h-61v375q-47 -69 -134 -76v-299h-61v375q-51 -76 -146 -76q-139 0 -139 139v104h61v-103q0 -96 90 -96q89 0 134 97v102h61v-199q89 0 134 97v102h61v-542z" />
    <glyph glyph-name="uni0E4F.liga" unicode="&#xe4f;&#x22;" horiz-adv-x="596" 
d="M526 218q0 -100 -66 -163q-64 -62 -162 -62t-162 62q-66 63 -66 163t66 163q64 62 162 62t162 -62q66 -63 66 -163zM492 218q0 85 -56 139q-54 53 -138 53t-138 -53q-56 -54 -56 -139t56 -139q54 -53 138 -53t138 53q56 54 56 139zM422 218q0 -55 -35 -89t-89 -34t-89 34
t-35 89t35 89t89 34t89 -34t35 -89zM389 218q0 42 -25 66t-66 24q-40 0 -65 -24q-26 -25 -26 -66t26 -66q25 -24 65 -24q41 0 66 24t25 66zM235 469h-32l-15 181h60zM399 469h-32l-15 181h60z" />
    <glyph glyph-name="uni0E24.liga" unicode="&#xe24;&#xe32;" horiz-adv-x="815" 
d="M754 -181h-62v573q0 113 -107 113q-70 0 -118 -37q28 -40 28 -95v-554h-61v553q0 133 -160 133q-60 0 -105 -26q-43 -26 -58 -66l83 -47v-24q-59 -17 -59 -84v-156q0 -56 55 -56h48v-46h-67q-97 0 -97 95v164q0 75 57 96l-82 48q16 67 79 108q62 39 147 39q104 0 162 -47
q64 47 156 47q161 0 161 -158v-573z" />
    <glyph glyph-name="uni0E26.liga" unicode="&#xe26;&#xe32;" horiz-adv-x="827" 
d="M766 -181h-61v573q0 113 -108 113q-72 0 -119 -38q28 -39 28 -94v-554h-61v553q0 133 -160 133q-60 0 -105 -26q-43 -26 -58 -66l87 -47v-24q-49 -14 -49 -78v-173q0 -91 -86 -91h-49v46h29q26 0 35 12q10 11 10 42v161q0 75 47 94l-86 48q16 67 79 108q62 39 147 39
q105 0 163 -48q64 48 157 48q160 0 160 -158v-573z" />
    <glyph glyph-name=".notdef" horiz-adv-x="806" 
d="M747 0h-683v944h683v-944zM722 25v892h-633v-892h633z" />
    <glyph glyph-name="space" unicode=" " horiz-adv-x="240" 
 />
    <glyph glyph-name="exclam" unicode="!" horiz-adv-x="259" 
d="M161 0h-69v77h69v-77zM148 165h-42l-12 218v267h66v-267z" />
    <glyph glyph-name="quotedbl" unicode="&#x22;" horiz-adv-x="303" 
d="M101 453h-33l-14 219h59zM236 453h-33l-14 219h60z" />
    <glyph glyph-name="numbersign" unicode="#" horiz-adv-x="643" 
d="M401 0h-55l49 206h-206l-49 -206h-56l49 206h-83v42h93l40 167h-88v42h99l47 193h55l-46 -193h205l47 193h57l-47 -193h81v-42h-91l-40 -167h86v-42h-97zM405 248l40 167h-205l-40 -167h205z" />
    <glyph glyph-name="dollar" unicode="$" horiz-adv-x="521" 
d="M295 -77h-56v68q-118 4 -188 56l25 43q75 -49 170 -49q167 0 167 115q0 61 -47 98q-28 23 -114 57q-95 38 -133 71q-56 47 -56 118q0 144 176 158v70h56v-70q95 -6 160 -54l-28 -41q-70 46 -152 46q-149 0 -149 -108q0 -54 45 -88q29 -22 113 -54q102 -38 145 -82
q46 -46 46 -118q0 -70 -48 -114t-132 -52v-70z" />
    <glyph glyph-name="percent" unicode="%" horiz-adv-x="800" 
d="M262 0h-59l342 652h60zM188 317q98 0 98 143t-98 143t-98 -143t98 -143zM188 274q-149 0 -149 186q0 185 149 185t149 -185q0 -186 -149 -186zM613 36q98 0 98 143t-98 143t-98 -143t98 -143zM613 -7q-149 0 -149 186q0 185 149 185t149 -185q0 -186 -149 -186z" />
    <glyph glyph-name="ampersand" unicode="&#x26;" horiz-adv-x="647" 
d="M619 16l-53 -19l-84 83q-77 -91 -218 -91q-102 0 -159 51q-51 47 -51 121q0 109 148 197q-94 70 -94 162q0 140 157 140q155 0 155 -137q0 -89 -132 -170l193 -199q34 65 37 170h52q0 -117 -54 -205zM241 326q-62 -38 -86 -64q-40 -42 -40 -95q0 -57 45 -93
q44 -36 116 -36q107 0 169 78zM169 521q0 -72 87 -140q103 68 103 137q0 100 -95 100t-95 -97z" />
    <glyph glyph-name="quotesingle" unicode="'" horiz-adv-x="173" 
d="M103 453h-32l-15 219h60z" />
    <glyph glyph-name="parenleft" unicode="(" horiz-adv-x="355" 
d="M199 -57q-49 54 -87 157q-40 111 -40 209t40 209q38 103 87 157h63q-129 -165 -129 -366t129 -366h-63z" />
    <glyph glyph-name="parenright" unicode=")" horiz-adv-x="355" 
d="M93 -57q129 165 129 366t-129 366h63q49 -54 87 -157q40 -111 40 -209t-40 -209q-38 -103 -87 -157h-63z" />
    <glyph glyph-name="asterisk" unicode="*" horiz-adv-x="586" 
d="M444 313l-61 -42l-90 158l-89 -158l-62 42l125 138l-189 37l23 71l173 -76l-19 184h76l-19 -184l173 76l23 -71l-189 -37z" />
    <glyph glyph-name="plus" unicode="+" horiz-adv-x="524" 
d="M290 53h-57v199h-191v47h191v199h57v-199h192v-47h-192v-199z" />
    <glyph glyph-name="comma" unicode="," horiz-adv-x="192" 
d="M57 -136h-42l65 230h72z" />
    <glyph glyph-name="hyphen" unicode="-" horiz-adv-x="335" 
d="M281 224h-227v50h227v-50z" />
    <glyph glyph-name="period" unicode="." horiz-adv-x="192" 
d="M136 0h-80v85h80v-85z" />
    <glyph glyph-name="slash" unicode="/" horiz-adv-x="323" 
d="M62 -90h-59l261 814h62z" />
    <glyph glyph-name="zero" unicode="0" horiz-adv-x="524" 
d="M262 42q160 0 160 283q0 282 -160 282t-160 -282q0 -283 160 -283zM488 325q0 -335 -226 -335t-226 335t226 335t226 -335z" />
    <glyph glyph-name="one" unicode="1" horiz-adv-x="524" 
d="M479 0h-371v51h154v540l-130 -84l-23 45l165 108h51v-609h154v-51z" />
    <glyph glyph-name="two" unicode="2" horiz-adv-x="524" 
d="M463 0h-396v75q0 81 166 220q165 139 165 207q0 105 -136 105q-93 0 -168 -48l-19 47q80 54 193 54q196 0 196 -161q0 -85 -166 -227q-167 -142 -167 -197v-24h332v-51z" />
    <glyph glyph-name="three" unicode="3" horiz-adv-x="524" 
d="M80 91q77 -49 171 -49q73 0 114 44q35 39 35 96q0 66 -41 106q-42 41 -115 41h-73v51h82q63 0 99 34q33 32 33 82q0 111 -136 111q-94 0 -169 -48l-19 47q78 54 192 54q87 0 139 -39q56 -42 56 -119q0 -56 -31 -96q-33 -40 -89 -50v-1q64 -12 100 -63q34 -47 34 -114
q0 -82 -56 -134q-58 -54 -150 -54q-113 0 -195 54z" />
    <glyph glyph-name="four" unicode="4" horiz-adv-x="524" 
d="M419 0h-64v159h-318v59l311 442h71v-450h80v-51h-80v-159zM355 210v368l-256 -368h256z" />
    <glyph glyph-name="five" unicode="5" horiz-adv-x="524" 
d="M79 91q75 -49 158 -49q69 0 110 43t41 115q0 150 -174 150q-87 0 -135 -11l19 311h325v-51h-267l-13 -203q44 4 68 4q109 0 166 -36q75 -48 75 -164q0 -99 -60 -156q-57 -54 -150 -54q-101 0 -183 54z" />
    <glyph glyph-name="six" unicode="6" horiz-adv-x="524" 
d="M424 567q-58 41 -134 41q-88 0 -136 -84q-44 -76 -44 -204q35 110 168 110q87 0 141 -56q54 -58 54 -154q0 -98 -56 -163q-57 -67 -146 -67q-102 0 -159 73q-61 78 -61 229q0 368 237 368q95 0 160 -51zM268 39q61 0 102 52q41 51 41 126q0 76 -39 121t-104 45
q-62 0 -104 -48t-42 -120q0 -74 41 -124q41 -52 105 -52z" />
    <glyph glyph-name="seven" unicode="7" horiz-adv-x="524" 
d="M171 0h-69l297 599h-340v51h409v-52z" />
    <glyph glyph-name="eight" unicode="8" horiz-adv-x="524" 
d="M187 354q-50 17 -83 54q-37 40 -37 90q0 74 58 119q56 43 145 43t145 -43q58 -45 58 -119q0 -106 -128 -159q72 -29 104 -60q41 -41 41 -103q0 -87 -63 -138q-60 -48 -157 -48t-157 48q-63 51 -63 138q0 118 137 177v1zM380 267q-37 27 -141 63q-126 -48 -126 -155
q0 -60 46 -99q44 -39 111 -39t112 39t45 99q0 57 -47 92zM129 500q0 -95 168 -139q114 51 114 138q0 50 -42 83q-40 32 -99 32t-99 -32q-42 -33 -42 -82z" />
    <glyph glyph-name="nine" unicode="9" horiz-adv-x="524" 
d="M108 88q57 -46 130 -46q90 0 136 84q41 75 41 206q-37 -105 -168 -105q-89 0 -142 56t-53 151q0 97 56 161q56 65 146 65q102 0 159 -73q60 -78 60 -229q0 -368 -234 -368q-93 0 -156 56zM256 274q64 0 105 44q41 45 41 118q0 74 -40 124q-42 52 -106 52q-61 0 -102 -51
q-41 -50 -41 -125t39 -119q39 -43 104 -43z" />
    <glyph glyph-name="colon" unicode=":" horiz-adv-x="194" 
d="M136 0h-78v81h78v-81zM136 388h-78v80h78v-80z" />
    <glyph glyph-name="semicolon" unicode=";" horiz-adv-x="194" 
d="M39 -174h-36l76 266h71zM136 388h-78v80h78v-80z" />
    <glyph glyph-name="less" unicode="&#x3c;" horiz-adv-x="524" 
d="M450 47l-376 209v44l376 208v-53l-314 -178l314 -178v-52z" />
    <glyph glyph-name="equal" unicode="=" horiz-adv-x="524" 
d="M454 298h-384v49h384v-49zM454 140h-384v49h384v-49z" />
    <glyph glyph-name="greater" unicode="&#x3e;" horiz-adv-x="524" 
d="M450 256l-376 -209v52l314 178l-314 178v53l376 -208v-44z" />
    <glyph glyph-name="question" unicode="?" horiz-adv-x="487" 
d="M239 142h-55v77q0 80 90 157q90 76 90 138q0 49 -37 74q-32 22 -84 22q-88 0 -156 -49l-21 42q72 57 186 57q76 0 123 -32q53 -38 53 -110q0 -82 -94 -159q-95 -76 -95 -147v-70zM246 0h-69v77h69v-77z" />
    <glyph glyph-name="at" unicode="@" horiz-adv-x="880" 
d="M590 -162q-76 -17 -153 -17q-155 0 -250 101q-100 106 -100 293q0 163 106 271q105 104 262 104q163 0 256 -95q90 -98 90 -267q0 -144 -56 -228h-147l-41 63q-61 -72 -140 -72q-65 0 -109 59q-45 60 -45 150q0 105 46 161q45 56 129 56q81 0 155 -36v-290l30 -46h94
q32 52 32 182q0 317 -297 317q-138 0 -225 -93t-87 -239q0 -164 83 -254q79 -87 217 -87q73 0 148 18zM542 347q-55 19 -105 19q-62 0 -90 -36q-28 -38 -28 -123q0 -167 110 -167q56 0 113 64v243z" />
    <glyph glyph-name="A" unicode="A" horiz-adv-x="610" 
d="M430 229l-125 369l-125 -369h250zM574 0h-68l-61 178h-281l-60 -178h-68l228 650h83z" />
    <glyph glyph-name="B" unicode="B" horiz-adv-x="550" 
d="M66 0v650h213q99 0 150 -43q50 -42 50 -118q0 -124 -114 -156v-1q134 -24 134 -155q0 -177 -207 -177h-226zM284 50q76 0 112 28q39 31 39 101q0 65 -40 95q-41 31 -133 31h-131v-255h153zM261 354q74 0 114 34q41 34 41 95q0 117 -142 117h-143v-246h130z" />
    <glyph glyph-name="C" unicode="C" horiz-adv-x="584" 
d="M533 36q-75 -46 -187 -46q-136 0 -216 93q-79 91 -79 242q0 150 79 242q81 93 214 93q105 0 180 -44l-27 -44q-59 37 -147 37q-106 0 -171 -79q-66 -78 -66 -205q0 -128 65 -206q66 -78 174 -78q95 0 157 40z" />
    <glyph glyph-name="D" unicode="D" horiz-adv-x="588" 
d="M66 0v650h190q283 0 283 -325t-283 -325h-190zM254 50q119 0 171 68q50 65 50 207q0 141 -50 206q-53 69 -173 69h-121v-550h123z" />
    <glyph glyph-name="E" unicode="E" horiz-adv-x="506" 
d="M456 0h-390v650h390v-50h-325v-247h262v-50h-262v-253h325v-50z" />
    <glyph glyph-name="F" unicode="F" horiz-adv-x="477" 
d="M131 0h-65v650h390v-50h-325v-247h262v-50h-262v-303z" />
    <glyph glyph-name="G" unicode="G" horiz-adv-x="610" 
d="M558 49q-79 -59 -212 -59q-137 0 -217 93q-78 91 -78 242q0 150 80 242q81 93 214 93q106 0 181 -44l-26 -45q-59 38 -149 38q-106 0 -172 -79q-66 -78 -66 -205q0 -128 65 -206t173 -78q92 0 147 37v208h-177v50h237v-287z" />
    <glyph glyph-name="H" unicode="H" horiz-adv-x="605" 
d="M539 0h-65v298h-343v-298h-65v650h65v-302h343v302h65v-650z" />
    <glyph glyph-name="I" unicode="I" horiz-adv-x="197" 
d="M131 0h-65v650h65v-650z" />
    <glyph glyph-name="J" unicode="J" horiz-adv-x="403" 
d="M342 174q0 -184 -174 -184q-85 0 -151 46l26 43q50 -37 117 -37q65 0 92 31q25 28 25 93v484h65v-476z" />
    <glyph glyph-name="K" unicode="K" horiz-adv-x="571" 
d="M131 0h-65v650h65v-650zM528 0h-78l-293 341l279 309h79l-280 -309z" />
    <glyph glyph-name="L" unicode="L" horiz-adv-x="477" 
d="M456 0h-390v650h65v-600h325v-50z" />
    <glyph glyph-name="M" unicode="M" horiz-adv-x="696" 
d="M630 0h-63v552l-204 -489h-30l-204 489v-552h-63v650h77l205 -499l206 499h76v-650z" />
    <glyph glyph-name="N" unicode="N" horiz-adv-x="603" 
d="M537 0h-65l-341 555v-555h-65v650h69l337 -553v553h65v-650z" />
    <glyph glyph-name="O" unicode="O" horiz-adv-x="653" 
d="M327 41q113 0 167 90q44 73 44 194t-44 194q-54 90 -167 90q-114 0 -168 -90q-44 -73 -44 -194t44 -194q54 -90 168 -90zM327 -10q-130 0 -203 88t-73 247t73 247t203 88q129 0 202 -88t73 -247t-73 -247t-202 -88z" />
    <glyph glyph-name="P" unicode="P" horiz-adv-x="517" 
d="M257 287q164 0 164 158q0 155 -166 155h-124v-313h126zM131 0h-65v650h193q225 0 225 -205q0 -208 -225 -208h-128v-237z" />
    <glyph glyph-name="Q" unicode="Q" horiz-adv-x="655" 
d="M559 -82q-178 30 -229 72h-4q-130 0 -202 89q-73 88 -73 246q0 159 73 247t203 88q129 0 202 -88t73 -247q0 -271 -196 -321l153 -28v-58zM327 41q113 0 167 90q44 73 44 194t-44 194q-54 90 -167 90q-114 0 -168 -90q-44 -73 -44 -194t44 -194q54 -90 168 -90z" />
    <glyph glyph-name="R" unicode="R" horiz-adv-x="549" 
d="M508 0h-66l-59 179q-17 50 -40 69q-27 22 -83 22h-128v-270h-65v650h212q99 0 152 -47q53 -48 53 -136q0 -140 -119 -180q54 -19 79 -95zM278 320q66 0 103 37q40 38 40 110q0 133 -146 133h-143v-280h146z" />
    <glyph glyph-name="S" unicode="S" horiz-adv-x="525" 
d="M76 90q74 -49 170 -49q165 0 165 116q0 61 -46 98q-28 22 -113 56q-93 37 -134 72q-55 48 -55 117q0 75 53 117q54 43 152 43q111 0 186 -56l-28 -41q-70 46 -156 46q-145 0 -145 -108q0 -50 50 -87q34 -26 121 -60q87 -35 122 -66q56 -49 56 -129q0 -81 -63 -126
q-60 -43 -162 -43q-122 0 -199 57z" />
    <glyph glyph-name="T" unicode="T" horiz-adv-x="508" 
d="M286 0h-65v600h-204v50h474v-50h-205v-600z" />
    <glyph glyph-name="U" unicode="U" horiz-adv-x="596" 
d="M535 207q0 -104 -64 -161q-62 -56 -173 -56t-173 56q-64 57 -64 161v443h65v-446q0 -163 172 -163t172 163v446h65v-443z" />
    <glyph glyph-name="V" unicode="V" horiz-adv-x="620" 
d="M353 0h-85l-227 650h68l201 -594l201 594h68z" />
    <glyph glyph-name="W" unicode="W" horiz-adv-x="808" 
d="M621 0h-66l-151 557l-151 -557h-66l-146 650h66l119 -572l150 555h56l149 -555l121 572h65z" />
    <glyph glyph-name="X" unicode="X" horiz-adv-x="578" 
d="M537 0h-71l-177 281l-177 -281h-71l216 325l-216 325h71l177 -281l177 281h71l-216 -325z" />
    <glyph glyph-name="Y" unicode="Y" horiz-adv-x="578" 
d="M321 0h-64v232l-220 418h68l184 -364l185 364h67l-220 -418v-232z" />
    <glyph glyph-name="Z" unicode="Z" horiz-adv-x="553" 
d="M504 0h-455v46l373 553h-347v51h420v-48l-373 -552h382v-50z" />
    <glyph glyph-name="bracketleft" unicode="[" horiz-adv-x="348" 
d="M293 -59h-206v779h206v-50h-143v-679h143v-50z" />
    <glyph glyph-name="backslash" unicode="\" horiz-adv-x="293" 
d="M310 -90h-61l-263 814h61z" />
    <glyph glyph-name="bracketright" unicode="]" horiz-adv-x="348" 
d="M264 -59h-206v50h142v679h-142v50h206v-779z" />
    <glyph glyph-name="asciicircum" unicode="^" horiz-adv-x="568" 
d="M513 331h-58l-167 278l-163 -278h-60l205 333h40z" />
    <glyph glyph-name="underscore" unicode="_" horiz-adv-x="411" 
d="M411 -99h-411v49h411v-49z" />
    <glyph glyph-name="grave" unicode="`" horiz-adv-x="424" 
d="M282 513h-48l-92 130h68z" />
    <glyph glyph-name="a" unicode="a" horiz-adv-x="477" 
d="M416 0h-53l-8 69q-49 -79 -162 -79q-62 0 -103 35t-41 91q0 90 78 126q70 32 228 32v61q0 43 -34 68q-32 24 -83 24q-71 0 -134 -38l-22 38q68 45 165 45q169 0 169 -138v-334zM355 235q-138 0 -192 -25t-54 -90q0 -40 29 -65q28 -24 73 -24q64 0 105 45q39 42 39 98v61z
" />
    <glyph glyph-name="b" unicode="b" horiz-adv-x="520" 
d="M119 0h-53v650h61v-243q53 65 148 65q92 0 143 -61q53 -62 53 -175q0 -115 -55 -181q-54 -65 -146 -65q-97 0 -146 77zM127 130q44 -95 126 -95q158 0 158 200q0 192 -150 192q-82 0 -134 -83v-214z" />
    <glyph glyph-name="c" unicode="c" horiz-adv-x="472" 
d="M422 31q-59 -41 -146 -41q-103 0 -164 65t-61 176t61 176q60 65 163 65q84 0 139 -40l-21 -39q-44 34 -114 34q-76 0 -121 -52q-47 -53 -47 -144t46 -144q45 -52 123 -52q79 0 122 35z" />
    <glyph glyph-name="d" unicode="d" horiz-adv-x="520" 
d="M454 0h-53l-5 67q-50 -77 -145 -77q-94 0 -147 62q-55 63 -55 177t53 179q52 64 144 64q100 0 147 -51v229h61v-650zM393 354q-44 73 -134 73q-149 0 -149 -199q0 -193 157 -193q80 0 126 95v224z" />
    <glyph glyph-name="e" unicode="e" horiz-adv-x="509" 
d="M405 267q-1 69 -35 112q-38 48 -108 48q-136 0 -153 -160h296zM433 32q-65 -42 -148 -42q-110 0 -172 66q-62 64 -62 177q0 112 58 176q56 63 151 63q198 0 198 -247h-350q1 -91 49 -141q48 -49 132 -49q71 0 123 38z" />
    <glyph glyph-name="f" unicode="f" horiz-adv-x="337" 
d="M169 0h-62v420h-68v42h68v71q0 126 117 126q53 0 93 -30l-19 -37q-24 22 -64 22q-65 0 -65 -77v-75h129v-42h-129v-420z" />
    <glyph glyph-name="g" unicode="g" horiz-adv-x="520" 
d="M454 13q0 -204 -202 -204q-84 0 -147 40l20 40q55 -35 121 -35q147 0 147 154v53q-53 -71 -147 -71q-92 0 -144 64q-53 65 -53 179q0 115 55 178q53 61 147 61q101 0 145 -63l6 53h52v-449zM393 353q-38 74 -126 74q-157 0 -157 -194q0 -198 149 -198q83 0 134 94v224z
" />
    <glyph glyph-name="h" unicode="h" horiz-adv-x="499" 
d="M442 0h-61v325q0 102 -102 102q-86 0 -152 -75v-352h-61v650h61v-243q69 65 173 65q142 0 142 -142v-330z" />
    <glyph glyph-name="i" unicode="i" horiz-adv-x="200" 
d="M130 0h-61v462h61v-462zM135 576h-70v74h70v-74z" />
    <glyph glyph-name="j" unicode="j" horiz-adv-x="283" 
d="M213 -46q0 -137 -122 -137q-65 0 -105 37l24 36q30 -27 74 -27q68 0 68 90v509h61v-508zM217 576h-70v74h70v-74z" />
    <glyph glyph-name="k" unicode="k" horiz-adv-x="425" 
d="M127 0h-61v650h61v-650zM422 0h-67l-209 244l190 218h68l-190 -218z" />
    <glyph glyph-name="l" unicode="l" horiz-adv-x="193" 
d="M127 0h-61v650h61v-650z" />
    <glyph glyph-name="m" unicode="m" horiz-adv-x="729" 
d="M668 0h-61v308q0 119 -88 119q-54 0 -117 -59q5 -26 5 -62v-306h-61v301q0 61 -16 90q-21 36 -71 36q-67 0 -131 -87v-340h-61v462h55l6 -61q60 71 150 71q70 0 104 -58q68 58 151 58q135 0 135 -159v-313z" />
    <glyph glyph-name="n" unicode="n" horiz-adv-x="503" 
d="M442 0h-61v325q0 102 -102 102q-78 0 -152 -87v-340h-61v462h55l6 -61q71 71 173 71q142 0 142 -142v-330z" />
    <glyph glyph-name="o" unicode="o" horiz-adv-x="527" 
d="M263 35q75 0 115 55q39 51 39 141t-39 142q-40 54 -115 54q-74 0 -114 -54q-39 -53 -39 -142t39 -141q40 -55 114 -55zM263 -10q-101 0 -158 66q-56 64 -56 175t56 175q57 66 158 66q102 0 159 -66q56 -64 56 -175t-56 -175q-57 -66 -159 -66z" />
    <glyph glyph-name="p" unicode="p" horiz-adv-x="520" 
d="M127 -188h-61v650h53l5 -60q42 70 148 70q93 0 145 -60q54 -62 54 -177q0 -114 -54 -180q-53 -65 -144 -65q-93 0 -146 64v-242zM127 108q45 -73 133 -73q73 0 112 53q39 52 39 147q0 192 -156 192q-90 0 -128 -85v-234z" />
    <glyph glyph-name="q" unicode="q" horiz-adv-x="520" 
d="M454 -188h-61v242q-51 -64 -146 -64q-91 0 -144 65q-54 65 -54 178q0 114 55 178q52 61 144 61q106 0 148 -70l5 60h53v-650zM393 342q-35 85 -128 85q-155 0 -155 -193q0 -95 38 -146q39 -53 112 -53q90 0 133 73v234z" />
    <glyph glyph-name="r" unicode="r" horiz-adv-x="320" 
d="M127 0h-61v462h54l6 -70q65 80 173 80v-47q-108 0 -172 -85v-340z" />
    <glyph glyph-name="s" unicode="s" horiz-adv-x="413" 
d="M62 77q55 -42 131 -42q122 0 122 83q0 39 -41 66q-20 13 -89 41q-63 25 -90 48q-41 34 -41 85q0 114 154 114q89 0 147 -42l-24 -38q-49 35 -118 35q-100 0 -100 -70q0 -34 41 -58q14 -9 89 -39q130 -52 130 -141q0 -129 -181 -129q-89 0 -152 48z" />
    <glyph glyph-name="t" unicode="t" horiz-adv-x="368" 
d="M348 26q-47 -36 -112 -36q-126 0 -126 140v290h-71v42h72l10 114h51v-114h151v-42h-151v-293q0 -93 75 -93q49 0 81 29z" />
    <glyph glyph-name="u" unicode="u" horiz-adv-x="503" 
d="M437 0h-55l-5 61q-59 -71 -154 -71q-72 0 -115 38q-47 41 -47 113v321h61v-319q0 -108 121 -108q78 0 133 85v342h61v-462z" />
    <glyph glyph-name="v" unicode="v" horiz-adv-x="498" 
d="M277 0h-56l-181 462h64l145 -395l145 395h64z" />
    <glyph glyph-name="w" unicode="w" horiz-adv-x="658" 
d="M494 0h-55l-110 385l-110 -385h-55l-124 462h60l95 -389l108 375h52l108 -375l95 389h60z" />
    <glyph glyph-name="x" unicode="x" horiz-adv-x="470" 
d="M435 0h-66l-134 192l-136 -192h-64l166 231l-164 231h65l133 -193l134 193h65l-164 -230z" />
    <glyph glyph-name="y" unicode="y" horiz-adv-x="507" 
d="M208 -179h-58l73 185l-183 456h62l150 -398l153 398h61z" />
    <glyph glyph-name="z" unicode="z" horiz-adv-x="442" 
d="M393 0h-344v40l269 380h-252v42h320v-38l-272 -382h279v-42z" />
    <glyph glyph-name="braceleft" unicode="{" horiz-adv-x="384" 
d="M325 -66h-43q-85 0 -85 83v160q0 119 -135 127v46q135 8 135 127v160q0 83 85 83h43v-41h-40q-37 -3 -37 -38v-174q0 -61 -29 -93q-25 -28 -87 -47q62 -19 87 -47q29 -32 29 -93v-174q0 -38 37 -38h40v-41z" />
    <glyph glyph-name="bar" unicode="|" horiz-adv-x="248" 
d="M148 -152h-48v864h48v-864z" />
    <glyph glyph-name="braceright" unicode="}" horiz-adv-x="384" 
d="M187 17q0 -83 -85 -83h-43v41h40q37 0 37 38v174q0 61 29 93q25 28 87 47q-62 19 -87 47q-29 32 -29 93v174q0 38 -37 38h-40v41h43q85 0 85 -83v-160q0 -119 135 -127v-46q-135 -8 -135 -127v-160z" />
    <glyph glyph-name="asciitilde" unicode="~" horiz-adv-x="641" 
d="M590 430q-4 -222 -143 -222q-53 0 -130 90q-77 89 -120 89q-97 0 -103 -180h-43q0 103 41 164q39 59 104 59q67 0 143 -89q76 -90 108 -90q93 0 100 179h43z" />
    <glyph glyph-name="exclamdown" unicode="&#xa1;" horiz-adv-x="259" 
d="M161 382h-69v77h69v-77zM160 -191h-66v267l12 218h42l12 -218v-267z" />
    <glyph glyph-name="cent" unicode="&#xa2;" horiz-adv-x="472" 
d="M422 31q-47 -34 -121 -39v-67h-55v67q-90 8 -142 72q-53 63 -53 167q0 103 53 167q52 64 142 72v66h55v-66q65 -4 113 -38l-21 -39q-44 34 -114 34q-76 0 -121 -52q-47 -53 -47 -144t46 -144q45 -52 123 -52q79 0 122 35z" />
    <glyph glyph-name="sterling" unicode="&#xa3;" horiz-adv-x="473" 
d="M421 14q-43 -25 -74 -26t-62 10q-98 26 -104 26q-23 2 -41 0q-38 -2 -69 -21l-20 43q95 63 100 176q0 29 -11 62h-80v41h65q-46 88 -46 134q0 75 49 121q47 45 121 45q152 0 170 -158h-53q-15 111 -113 111q-49 0 -80 -31q-32 -33 -32 -86q0 -46 45 -136h167v-41h-155
q12 -37 11 -63q-3 -86 -72 -164q27 10 61 8q26 0 91 -21q31 -11 64 -10q27 1 68 25v-45z" />
    <glyph glyph-name="yen" unicode="&#xa5;" horiz-adv-x="574" 
d="M470 144h-151v-144h-64v144h-151v39h151v49l-32 61h-119v40h98l-167 317h68l184 -364l185 364h67l-167 -317h98v-40h-119l-32 -61v-49h151v-39z" />
    <glyph glyph-name="section" unicode="&#xa7;" horiz-adv-x="549" 
d="M81 -138q79 -51 174 -51q77 0 124 40q44 38 44 94q0 65 -56 106q-33 25 -123 58q-89 33 -123 58q-56 41 -56 106q0 79 67 121q-68 45 -68 114q0 71 58 112q57 40 157 40q109 0 189 -56l-23 -42q-74 49 -164 49q-154 0 -154 -104q0 -49 56 -83q21 -13 122 -52
q84 -33 122 -67q56 -50 56 -127q0 -68 -45 -118q46 -43 46 -113q0 -84 -64 -135q-62 -50 -163 -50q-119 0 -199 57zM222 171q155 -66 173 -79q32 38 32 84q0 81 -84 126q-27 14 -80 33q-60 22 -81 32q-59 -29 -59 -89q0 -65 99 -107z" />
    <glyph glyph-name="dieresis" unicode="&#xa8;" horiz-adv-x="330" 
d="M108 513h-70v80h70v-80zM291 513h-70v80h70v-80z" />
    <glyph glyph-name="copyright" unicode="&#xa9;" horiz-adv-x="750" 
d="M526 237q-11 -51 -55 -79q-40 -26 -94 -26q-76 0 -123 51q-49 52 -49 139t49 139q47 51 123 51q54 0 94 -25q44 -29 55 -80h-45q-15 65 -104 65q-127 0 -127 -150t127 -150q89 0 104 65h45zM375 3q-142 0 -232 91q-91 90 -91 231t91 231q91 91 232 91t232 -91t91 -231
q0 -141 -92 -231q-91 -91 -231 -91zM96 325q0 -125 77 -202q76 -78 202 -78q124 0 202 78t78 202t-77 202q-78 78 -203 78t-202 -78t-77 -202z" />
    <glyph glyph-name="ordfeminine" unicode="&#xaa;" horiz-adv-x="325" 
d="M275 356h-41l-6 43q-35 -50 -103 -50q-39 0 -64 22t-25 60q0 57 48 82q45 23 143 23q0 49 -12 67q-14 21 -56 21q-51 0 -84 -25l-19 31q43 30 105 30q114 0 114 -98v-206zM227 505q-79 0 -110 -15q-33 -16 -33 -57q0 -50 58 -50q38 0 62 25q23 24 23 57v40z" />
    <glyph glyph-name="guillemotleft" unicode="&#xab;" horiz-adv-x="361" 
d="M199 32h-56l-97 189l97 188h56l-94 -188zM315 32h-56l-97 189l97 188h56l-94 -188z" />
    <glyph glyph-name="logicalnot" unicode="&#xac;" horiz-adv-x="466" 
d="M432 120h-54v114h-344v47h398v-161z" />
    <glyph glyph-name="registered" unicode="&#xae;" horiz-adv-x="380" 
d="M268 397h-31l-16 52q-8 23 -36 23h-34v-75h-28v194h80q61 0 61 -56q0 -48 -39 -53q14 -4 24 -29zM200 496q34 0 34 38q0 33 -33 33h-50v-71h49zM323 491q0 61 -35 98q-35 38 -98 38t-98 -38q-35 -37 -35 -98t35 -97q36 -38 98 -38t98 38q35 37 35 97zM350 491
q0 -69 -41 -112q-44 -46 -119 -46q-76 0 -119 46q-41 43 -41 112t41 113q43 46 119 46t119 -46q41 -44 41 -113z" />
    <glyph glyph-name="macron" unicode="&#xaf;" horiz-adv-x="424" 
d="M424 707h-424v43h424v-43z" />
    <glyph glyph-name="degree" unicode="&#xb0;" horiz-adv-x="278" 
d="M208 614q0 29 -20 48q-20 20 -49 20q-28 0 -48 -20q-20 -19 -20 -48t20 -49q19 -20 48 -20t49 20t20 49zM240 614q0 -43 -29 -72q-29 -28 -72 -28t-72 28q-29 29 -29 72t29 71t72 28t72 -28t29 -71z" />
    <glyph glyph-name="plusminus" unicode="&#xb1;" horiz-adv-x="524" 
d="M482 282h-192v-169h-57v169h-191v47h191v169h57v-169h192v-47zM482 25h-440v47h440v-47z" />
    <glyph glyph-name="acute" unicode="&#xb4;" horiz-adv-x="424" 
d="M190 513h-48l72 130h68z" />
    <glyph glyph-name="mu" unicode="&#xb5;" horiz-adv-x="489" 
d="M487 4q-36 -13 -61 -13q-40 0 -48 69q-54 -69 -141 -69q-81 0 -114 55v-237h-61v653h61v-309q0 -55 32 -86q33 -32 89 -32q85 0 133 75v352h61v-393q0 -30 22 -30q11 0 27 8v-43z" />
    <glyph glyph-name="paragraph" unicode="&#xb6;" horiz-adv-x="455" 
d="M411 -36h-32v646h-91v-646h-41v332q-213 3 -213 176q0 178 207 178h170v-686z" />
    <glyph glyph-name="periodcentered" unicode="&#xb7;" horiz-adv-x="223" 
d="M113 226q-52 0 -52 54q0 53 52 53t52 -53q0 -54 -52 -54z" />
    <glyph glyph-name="cedilla" unicode="&#xb8;" horiz-adv-x="424" 
d="M126 -156q29 -11 58 -11q77 0 77 51q0 47 -96 47l20 77h42l-12 -51q93 -2 93 -74q0 -87 -113 -87q-36 0 -79 15z" />
    <glyph glyph-name="ordmasculine" unicode="&#xba;" horiz-adv-x="315" 
d="M158 391q85 0 85 116q0 117 -85 117q-86 0 -86 -117q0 -116 86 -116zM294 507q0 -152 -136 -152t-136 152q0 153 136 153t136 -153z" />
    <glyph glyph-name="guillemotright" unicode="&#xbb;" horiz-adv-x="361" 
d="M218 32h-56l94 189l-94 188h56l97 -188zM102 32h-56l94 189l-94 188h56l97 -188z" />
    <glyph glyph-name="questiondown" unicode="&#xbf;" horiz-adv-x="487" 
d="M428 -144q-72 -57 -186 -57q-76 0 -122 32q-54 38 -54 110q0 82 95 159q94 76 94 147v70h55v-77q0 -80 -90 -156q-90 -77 -90 -139q0 -49 37 -74q32 -22 84 -22q88 0 156 49zM317 382h-69v77h69v-77z" />
    <glyph glyph-name="Agrave" unicode="&#xc0;" horiz-adv-x="610" 
d="M430 229l-125 369l-125 -369h250zM574 0h-68l-61 178h-281l-60 -178h-68l228 650h83zM337 701h-48l-92 130h68z" />
    <glyph glyph-name="Aacute" unicode="&#xc1;" horiz-adv-x="610" 
d="M430 229l-125 369l-125 -369h250zM574 0h-68l-61 178h-281l-60 -178h-68l228 650h83zM324 701h-48l72 130h68z" />
    <glyph glyph-name="Acircumflex" unicode="&#xc2;" horiz-adv-x="610" 
d="M430 229l-125 369l-125 -369h250zM574 0h-68l-61 178h-281l-60 -178h-68l228 650h83zM418 701h-50l-63 92l-63 -92h-50l89 127h48z" />
    <glyph glyph-name="Atilde" unicode="&#xc3;" horiz-adv-x="610" 
d="M430 229l-125 369l-125 -369h250zM574 0h-68l-61 178h-281l-60 -178h-68l228 650h83zM447 755q-38 -55 -78 -55q-19 0 -61 24q-43 24 -66 24q-32 0 -53 -46l-27 26q27 60 80 60q26 0 70 -22q43 -23 57 -23q25 0 51 38z" />
    <glyph glyph-name="Adieresis" unicode="&#xc4;" horiz-adv-x="610" 
d="M430 229l-125 369l-125 -369h250zM574 0h-68l-61 178h-281l-60 -178h-68l228 650h83zM248 701h-70v80h70v-80zM431 701h-70v80h70v-80z" />
    <glyph glyph-name="Aring" unicode="&#xc5;" horiz-adv-x="610" 
d="M430 229l-125 369l-125 -369h250zM574 0h-68l-61 178h-281l-60 -178h-68l228 650h83zM305 692q26 0 44 18t18 44t-18 44t-44 18q-27 0 -44 -18q-18 -18 -18 -44t18 -44q17 -18 44 -18zM305 658q-42 0 -69 28q-28 27 -28 68t28 68q27 28 69 28q41 0 69 -28q28 -27 28 -68
t-28 -68q-28 -28 -69 -28z" />
    <glyph glyph-name="AE" unicode="&#xc6;" horiz-adv-x="788" 
d="M737 0h-374v176h-202l-76 -176h-68l282 650h438v-51h-309v-245h278v-53h-278v-251h309v-50zM363 229v370h-24l-161 -370h185z" />
    <glyph glyph-name="Ccedilla" unicode="&#xc7;" horiz-adv-x="584" 
d="M533 36q-72 -45 -178 -46l-9 -39q93 -2 93 -74q0 -87 -113 -87q-36 0 -79 15l10 33q29 -11 58 -11q77 0 77 51q0 47 -96 47l17 67q-122 10 -192 102q-70 89 -70 231q0 150 79 242q81 93 214 93q105 0 180 -44l-27 -44q-59 37 -147 37q-106 0 -171 -79q-66 -78 -66 -205
q0 -128 65 -206q66 -78 174 -78q95 0 157 40z" />
    <glyph glyph-name="Egrave" unicode="&#xc8;" horiz-adv-x="506" 
d="M456 0h-390v650h390v-50h-325v-247h262v-50h-262v-253h325v-50zM323 701h-48l-92 130h68z" />
    <glyph glyph-name="Eacute" unicode="&#xc9;" horiz-adv-x="506" 
d="M456 0h-390v650h390v-50h-325v-247h262v-50h-262v-253h325v-50zM231 701h-48l72 130h68z" />
    <glyph glyph-name="Ecircumflex" unicode="&#xca;" horiz-adv-x="506" 
d="M456 0h-390v650h390v-50h-325v-247h262v-50h-262v-253h325v-50zM366 701h-50l-63 92l-63 -92h-50l89 127h48z" />
    <glyph glyph-name="Edieresis" unicode="&#xcb;" horiz-adv-x="506" 
d="M456 0h-390v650h390v-50h-325v-247h262v-50h-262v-253h325v-50zM196 701h-70v80h70v-80zM379 701h-70v80h70v-80z" />
    <glyph glyph-name="Igrave" unicode="&#xcc;" horiz-adv-x="196" 
d="M131 0h-65v650h65v-650zM137 701h-48l-92 130h68z" />
    <glyph glyph-name="Iacute" unicode="&#xcd;" horiz-adv-x="196" 
d="M130 0h-64v650h64v-650zM114 701h-48l72 130h68z" />
    <glyph glyph-name="Icircumflex" unicode="&#xce;" horiz-adv-x="196" 
d="M131 0h-65v650h65v-650zM218 701h-50l-63 92l-63 -92h-50l89 127h48z" />
    <glyph glyph-name="Idieresis" unicode="&#xcf;" horiz-adv-x="196" 
d="M130 0h-64v650h64v-650zM42 701h-70v80h70v-80zM225 701h-70v80h70v-80z" />
    <glyph glyph-name="Ntilde" unicode="&#xd1;" horiz-adv-x="602" 
d="M537 0h-65l-341 555v-555h-65v650h69l337 -553v553h65v-650zM443 755q-38 -55 -78 -55q-19 0 -61 24q-43 24 -66 24q-32 0 -53 -46l-27 26q27 60 80 60q26 0 70 -22q43 -23 57 -23q25 0 51 38z" />
    <glyph glyph-name="Ograve" unicode="&#xd2;" horiz-adv-x="653" 
d="M327 41q113 0 167 90q44 73 44 194t-44 194q-54 90 -167 90q-114 0 -168 -90q-44 -73 -44 -194t44 -194q54 -90 168 -90zM327 -10q-130 0 -203 88t-73 247t73 247t203 88q129 0 202 -88t73 -247t-73 -247t-202 -88zM396 701h-48l-92 130h68z" />
    <glyph glyph-name="Oacute" unicode="&#xd3;" horiz-adv-x="653" 
d="M327 41q113 0 167 90q44 73 44 194t-44 194q-54 90 -167 90q-114 0 -168 -90q-44 -73 -44 -194t44 -194q54 -90 168 -90zM327 -10q-130 0 -203 88t-73 247t73 247t203 88q129 0 202 -88t73 -247t-73 -247t-202 -88zM304 701h-48l72 130h68z" />
    <glyph glyph-name="Ocircumflex" unicode="&#xd4;" horiz-adv-x="653" 
d="M327 41q113 0 167 90q44 73 44 194t-44 194q-54 90 -167 90q-114 0 -168 -90q-44 -73 -44 -194t44 -194q54 -90 168 -90zM327 -10q-130 0 -203 88t-73 247t73 247t203 88q129 0 202 -88t73 -247t-73 -247t-202 -88zM439 701h-50l-63 92l-63 -92h-50l89 127h48z" />
    <glyph glyph-name="Otilde" unicode="&#xd5;" horiz-adv-x="653" 
d="M327 41q113 0 167 90q44 73 44 194t-44 194q-54 90 -167 90q-114 0 -168 -90q-44 -73 -44 -194t44 -194q54 -90 168 -90zM327 -10q-130 0 -203 88t-73 247t73 247t203 88q129 0 202 -88t73 -247t-73 -247t-202 -88zM469 755q-38 -55 -78 -55q-19 0 -61 24q-43 24 -66 24
q-32 0 -53 -46l-27 26q27 60 80 60q26 0 70 -22q43 -23 57 -23q25 0 51 38z" />
    <glyph glyph-name="Odieresis" unicode="&#xd6;" horiz-adv-x="653" 
d="M327 41q113 0 167 90q44 73 44 194t-44 194q-54 90 -167 90q-114 0 -168 -90q-44 -73 -44 -194t44 -194q54 -90 168 -90zM327 -10q-130 0 -203 88t-73 247t73 247t203 88q129 0 202 -88t73 -247t-73 -247t-202 -88zM270 701h-70v80h70v-80zM453 701h-70v80h70v-80z" />
    <glyph glyph-name="Oslash" unicode="&#xd8;" horiz-adv-x="653" 
d="M179 -73h-42l43 102q-129 80 -129 296q0 159 73 247t203 88q66 0 117 -24l26 59h45l-35 -78q122 -83 122 -292q0 -159 -73 -247t-202 -88q-61 0 -112 20zM421 588q-42 21 -94 21q-114 0 -168 -90q-44 -73 -44 -194q0 -178 93 -241zM239 58q34 -17 88 -17q113 0 167 90
q44 73 44 194q0 169 -85 238z" />
    <glyph glyph-name="Ugrave" unicode="&#xd9;" horiz-adv-x="596" 
d="M535 207q0 -104 -64 -161q-62 -56 -173 -56t-173 56q-64 57 -64 161v443h65v-446q0 -163 172 -163t172 163v446h65v-443zM368 701h-48l-92 130h68z" />
    <glyph glyph-name="Uacute" unicode="&#xda;" horiz-adv-x="596" 
d="M535 207q0 -104 -64 -161q-62 -56 -173 -56t-173 56q-64 57 -64 161v443h65v-446q0 -163 172 -163t172 163v446h65v-443zM276 701h-48l72 130h68z" />
    <glyph glyph-name="Ucircumflex" unicode="&#xdb;" horiz-adv-x="596" 
d="M535 207q0 -104 -64 -161q-62 -56 -173 -56t-173 56q-64 57 -64 161v443h65v-446q0 -163 172 -163t172 163v446h65v-443zM411 701h-50l-63 92l-63 -92h-50l89 127h48z" />
    <glyph glyph-name="Udieresis" unicode="&#xdc;" horiz-adv-x="596" 
d="M535 207q0 -104 -64 -161q-62 -56 -173 -56t-173 56q-64 57 -64 161v443h65v-446q0 -163 172 -163t172 163v446h65v-443zM241 701h-70v80h70v-80zM424 701h-70v80h70v-80z" />
    <glyph glyph-name="uni00DF" unicode="&#xdf;" horiz-adv-x="552" 
d="M36 -203q23 55 23 115v504q0 242 215 242q94 0 144 -43q47 -41 47 -110q0 -52 -49 -98t-49 -73q0 -26 75 -83q74 -56 74 -117q0 -68 -47 -107q-45 -37 -122 -37q-106 0 -150 83l30 33q29 -68 112 -68q117 0 117 100q0 45 -75 98t-75 99q0 40 50 85q49 44 49 80
q0 110 -135 110q-151 0 -151 -189v-509q0 -75 -28 -130z" />
    <glyph glyph-name="agrave" unicode="&#xe0;" horiz-adv-x="477" 
d="M416 0h-53l-8 69q-49 -79 -162 -79q-62 0 -103 35t-41 91q0 90 78 126q70 32 228 32v61q0 43 -34 68q-32 24 -83 24q-71 0 -134 -38l-22 38q68 45 165 45q169 0 169 -138v-334zM355 235q-138 0 -192 -25t-54 -90q0 -40 29 -65q28 -24 73 -24q64 0 105 45q39 42 39 98v61z
M308 513h-48l-92 130h68z" />
    <glyph glyph-name="aacute" unicode="&#xe1;" horiz-adv-x="477" 
d="M416 0h-53l-8 69q-49 -79 -162 -79q-62 0 -103 35t-41 91q0 90 78 126q70 32 228 32v61q0 43 -34 68q-32 24 -83 24q-71 0 -134 -38l-22 38q68 45 165 45q169 0 169 -138v-334zM355 235q-138 0 -192 -25t-54 -90q0 -40 29 -65q28 -24 73 -24q64 0 105 45q39 42 39 98v61z
M229 513h-48l72 130h68z" />
    <glyph glyph-name="acircumflex" unicode="&#xe2;" horiz-adv-x="477" 
d="M416 0h-53l-8 69q-49 -79 -162 -79q-62 0 -103 35t-41 91q0 90 78 126q70 32 228 32v61q0 43 -34 68q-32 24 -83 24q-71 0 -134 -38l-22 38q68 45 165 45q169 0 169 -138v-334zM355 235q-138 0 -192 -25t-54 -90q0 -40 29 -65q28 -24 73 -24q64 0 105 45q39 42 39 98v61z
M351 513h-50l-63 92l-63 -92h-50l89 127h48z" />
    <glyph glyph-name="atilde" unicode="&#xe3;" horiz-adv-x="477" 
d="M416 0h-53l-8 69q-49 -79 -162 -79q-62 0 -103 35t-41 91q0 90 78 126q70 32 228 32v61q0 43 -34 68q-32 24 -83 24q-71 0 -134 -38l-22 38q68 45 165 45q169 0 169 -138v-334zM355 235q-138 0 -192 -25t-54 -90q0 -40 29 -65q28 -24 73 -24q64 0 105 45q39 42 39 98v61z
M381 567q-38 -55 -78 -55q-19 0 -61 24q-43 24 -66 24q-32 0 -53 -46l-27 26q27 60 80 60q26 0 70 -22q43 -23 57 -23q25 0 51 38z" />
    <glyph glyph-name="adieresis" unicode="&#xe4;" horiz-adv-x="477" 
d="M416 0h-53l-8 69q-49 -79 -162 -79q-62 0 -103 35t-41 91q0 90 78 126q70 32 228 32v61q0 43 -34 68q-32 24 -83 24q-71 0 -134 -38l-22 38q68 45 165 45q169 0 169 -138v-334zM355 235q-138 0 -192 -25t-54 -90q0 -40 29 -65q28 -24 73 -24q64 0 105 45q39 42 39 98v61z
M182 513h-70v80h70v-80zM365 513h-70v80h70v-80z" />
    <glyph glyph-name="aring" unicode="&#xe5;" horiz-adv-x="477" 
d="M416 0h-53l-8 69q-49 -79 -162 -79q-62 0 -103 35t-41 91q0 90 78 126q70 32 228 32v61q0 43 -34 68q-32 24 -83 24q-71 0 -134 -38l-22 38q68 45 165 45q169 0 169 -138v-334zM355 235q-138 0 -192 -25t-54 -90q0 -40 29 -65q28 -24 73 -24q64 0 105 45q39 42 39 98v61z
M253 522q26 0 44 18t18 44t-18 44t-44 18q-27 0 -44 -18q-18 -18 -18 -44t18 -44q17 -18 44 -18zM253 488q-42 0 -69 28q-28 27 -28 68t28 68q27 28 69 28q41 0 69 -28q28 -27 28 -68t-28 -68q-28 -28 -69 -28z" />
    <glyph glyph-name="ae" unicode="&#xe6;" horiz-adv-x="770" 
d="M695 32q-66 -42 -149 -42q-121 0 -178 77q-46 -77 -169 -77q-67 0 -108 36q-42 35 -42 93q0 80 72 115q63 31 194 32q5 63 29 107q-22 54 -106 54q-71 0 -134 -38l-22 38q68 45 165 45q98 0 135 -57q54 57 139 57q198 0 198 -247h-350q1 -91 50 -141q48 -49 132 -49
q70 0 123 38zM667 267q-1 69 -36 112q-38 48 -108 48q-136 0 -153 -160h297zM211 31q96 0 130 69q-28 53 -28 128q-98 -1 -145 -22q-59 -25 -59 -86q0 -40 29 -65q28 -24 73 -24z" />
    <glyph glyph-name="ccedilla" unicode="&#xe7;" horiz-adv-x="472" 
d="M422 31q-55 -39 -142 -41l-9 -38q93 -2 93 -74q0 -87 -113 -87q-36 0 -79 15l10 33q29 -11 58 -11q77 0 77 51q0 47 -96 47l17 67q-87 11 -137 74t-50 164q0 111 61 176q60 65 163 65q84 0 139 -40l-21 -39q-44 34 -114 34q-76 0 -121 -52q-47 -53 -47 -144t46 -144
q45 -52 123 -52q79 0 122 35z" />
    <glyph glyph-name="egrave" unicode="&#xe8;" horiz-adv-x="509" 
d="M405 267q-1 69 -35 112q-38 48 -108 48q-136 0 -153 -160h296zM433 32q-65 -42 -148 -42q-110 0 -172 66q-62 64 -62 177q0 112 58 176q56 63 151 63q198 0 198 -247h-350q1 -91 49 -141q48 -49 132 -49q71 0 123 38zM324 513h-48l-92 130h68z" />
    <glyph glyph-name="eacute" unicode="&#xe9;" horiz-adv-x="509" 
d="M405 267q-1 69 -35 112q-38 48 -108 48q-136 0 -153 -160h296zM433 32q-65 -42 -148 -42q-110 0 -172 66q-62 64 -62 177q0 112 58 176q56 63 151 63q198 0 198 -247h-350q1 -91 49 -141q48 -49 132 -49q71 0 123 38zM232 513h-48l72 130h68z" />
    <glyph glyph-name="ecircumflex" unicode="&#xea;" horiz-adv-x="509" 
d="M405 267q-1 69 -35 112q-38 48 -108 48q-136 0 -153 -160h296zM433 32q-65 -42 -148 -42q-110 0 -172 66q-62 64 -62 177q0 112 58 176q56 63 151 63q198 0 198 -247h-350q1 -91 49 -141q48 -49 132 -49q71 0 123 38zM367 513h-50l-63 92l-63 -92h-50l89 127h48z" />
    <glyph glyph-name="edieresis" unicode="&#xeb;" horiz-adv-x="509" 
d="M405 267q-1 69 -35 112q-38 48 -108 48q-136 0 -153 -160h296zM433 32q-65 -42 -148 -42q-110 0 -172 66q-62 64 -62 177q0 112 58 176q56 63 151 63q198 0 198 -247h-350q1 -91 49 -141q48 -49 132 -49q71 0 123 38zM198 513h-70v80h70v-80zM381 513h-70v80h70v-80z" />
    <glyph glyph-name="igrave" unicode="&#xec;" horiz-adv-x="201" 
d="M131 0h-61v462h61v-462zM137 513h-48l-92 130h68z" />
    <glyph glyph-name="iacute" unicode="&#xed;" horiz-adv-x="201" 
d="M131 0h-61v462h61v-462zM117 513h-48l72 130h68z" />
    <glyph glyph-name="icircumflex" unicode="&#xee;" horiz-adv-x="201" 
d="M131 0h-61v462h61v-462zM221 513h-50l-63 92l-63 -92h-50l89 127h48z" />
    <glyph glyph-name="idieresis" unicode="&#xef;" horiz-adv-x="201" 
d="M131 0h-61v462h61v-462zM44 513h-70v80h70v-80zM227 513h-70v80h70v-80z" />
    <glyph glyph-name="ntilde" unicode="&#xf1;" horiz-adv-x="503" 
d="M442 0h-61v325q0 102 -102 102q-78 0 -152 -87v-340h-61v462h55l6 -61q71 71 173 71q142 0 142 -142v-330zM394 567q-38 -55 -78 -55q-19 0 -61 24q-43 24 -66 24q-32 0 -53 -46l-27 26q27 60 80 60q26 0 70 -22q43 -23 57 -23q25 0 51 38z" />
    <glyph glyph-name="ograve" unicode="&#xf2;" horiz-adv-x="527" 
d="M263 35q75 0 115 55q39 51 39 141t-39 142q-40 54 -115 54q-74 0 -114 -54q-39 -53 -39 -142t39 -141q40 -55 114 -55zM263 -10q-101 0 -158 66q-56 64 -56 175t56 175q57 66 158 66q102 0 159 -66q56 -64 56 -175t-56 -175q-57 -66 -159 -66zM333 513h-48l-92 130h68z
" />
    <glyph glyph-name="oacute" unicode="&#xf3;" horiz-adv-x="527" 
d="M263 35q75 0 115 55q39 51 39 141t-39 142q-40 54 -115 54q-74 0 -114 -54q-39 -53 -39 -142t39 -141q40 -55 114 -55zM263 -10q-101 0 -158 66q-56 64 -56 175t56 175q57 66 158 66q102 0 159 -66q56 -64 56 -175t-56 -175q-57 -66 -159 -66zM241 513h-48l72 130h68z
" />
    <glyph glyph-name="ocircumflex" unicode="&#xf4;" horiz-adv-x="527" 
d="M263 35q75 0 115 55q39 51 39 141t-39 142q-40 54 -115 54q-74 0 -114 -54q-39 -53 -39 -142t39 -141q40 -55 114 -55zM263 -10q-101 0 -158 66q-56 64 -56 175t56 175q57 66 158 66q102 0 159 -66q56 -64 56 -175t-56 -175q-57 -66 -159 -66zM376 513h-50l-63 92
l-63 -92h-50l89 127h48z" />
    <glyph glyph-name="otilde" unicode="&#xf5;" horiz-adv-x="527" 
d="M263 35q75 0 115 55q39 51 39 141t-39 142q-40 54 -115 54q-74 0 -114 -54q-39 -53 -39 -142t39 -141q40 -55 114 -55zM263 -10q-101 0 -158 66q-56 64 -56 175t56 175q57 66 158 66q102 0 159 -66q56 -64 56 -175t-56 -175q-57 -66 -159 -66zM406 567q-38 -55 -78 -55
q-19 0 -61 24q-43 24 -66 24q-32 0 -53 -46l-27 26q27 60 80 60q26 0 70 -22q43 -23 57 -23q25 0 51 38z" />
    <glyph glyph-name="odieresis" unicode="&#xf6;" horiz-adv-x="527" 
d="M263 35q75 0 115 55q39 51 39 141t-39 142q-40 54 -115 54q-74 0 -114 -54q-39 -53 -39 -142t39 -141q40 -55 114 -55zM263 -10q-101 0 -158 66q-56 64 -56 175t56 175q57 66 158 66q102 0 159 -66q56 -64 56 -175t-56 -175q-57 -66 -159 -66zM207 513h-70v80h70v-80z
M390 513h-70v80h70v-80z" />
    <glyph glyph-name="divide" unicode="&#xf7;" horiz-adv-x="524" 
d="M294 90h-74v82h74v-82zM294 369h-74v82h74v-82zM456 252h-388v47h388v-47z" />
    <glyph glyph-name="oslash" unicode="&#xf8;" horiz-adv-x="498" 
d="M141 -44h-42l29 70q-88 61 -88 201q0 109 57 173t153 64q34 0 64 -9l22 50h45l-29 -65q107 -57 107 -213q0 -109 -57 -173q-56 -64 -152 -64q-44 0 -87 18zM183 51q30 -16 67 -16q68 0 108 54q39 52 39 138q0 116 -71 162zM294 412q-20 7 -44 7q-69 0 -109 -54
q-39 -52 -39 -138q0 -99 52 -148z" />
    <glyph glyph-name="ugrave" unicode="&#xf9;" horiz-adv-x="503" 
d="M437 0h-55l-5 61q-59 -71 -154 -71q-72 0 -115 38q-47 41 -47 113v321h61v-319q0 -108 121 -108q78 0 133 85v342h61v-462zM321 513h-48l-92 130h68z" />
    <glyph glyph-name="uacute" unicode="&#xfa;" horiz-adv-x="503" 
d="M437 0h-55l-5 61q-59 -71 -154 -71q-72 0 -115 38q-47 41 -47 113v321h61v-319q0 -108 121 -108q78 0 133 85v342h61v-462zM229 513h-48l72 130h68z" />
    <glyph glyph-name="ucircumflex" unicode="&#xfb;" horiz-adv-x="503" 
d="M437 0h-55l-5 61q-59 -71 -154 -71q-72 0 -115 38q-47 41 -47 113v321h61v-319q0 -108 121 -108q78 0 133 85v342h61v-462zM364 513h-50l-63 92l-63 -92h-50l89 127h48z" />
    <glyph glyph-name="udieresis" unicode="&#xfc;" horiz-adv-x="503" 
d="M437 0h-55l-5 61q-59 -71 -154 -71q-72 0 -115 38q-47 41 -47 113v321h61v-319q0 -108 121 -108q78 0 133 85v342h61v-462zM195 513h-70v80h70v-80zM378 513h-70v80h70v-80z" />
    <glyph glyph-name="ydieresis" unicode="&#xff;" horiz-adv-x="507" 
d="M208 -179h-58l73 185l-183 456h62l150 -398l153 398h61zM197 513h-70v80h70v-80zM380 513h-70v80h70v-80z" />
    <glyph glyph-name="dotlessi" unicode="&#x131;" horiz-adv-x="201" 
d="M131 0h-61v462h61v-462z" />
    <glyph glyph-name="OE" unicode="&#x152;" horiz-adv-x="956" 
d="M906 0h-391v90q-58 -100 -198 -100q-123 0 -194 88q-73 90 -73 247t73 247q71 88 194 88q140 0 198 -100v90h391v-51h-326v-221h295v-51h-295v-277h326v-50zM325 41q150 0 189 151v288q-52 129 -189 129q-113 0 -167 -90q-44 -73 -44 -194t44 -194q54 -90 167 -90z" />
    <glyph glyph-name="oe" unicode="&#x153;" horiz-adv-x="797" 
d="M724 31q-63 -41 -144 -41q-109 0 -170 67q-56 -67 -151 -67q-96 0 -153 64t-57 173t57 173t153 64q91 0 145 -60q54 68 148 68q194 0 194 -240h-340q1 -94 46 -145q46 -52 132 -52q64 0 119 37zM259 35q75 0 116 66q-28 58 -28 132q0 71 24 125q-39 61 -112 61
q-69 0 -109 -54q-39 -52 -39 -138t39 -138q40 -54 109 -54zM690 274q-1 67 -36 109q-37 44 -100 44q-131 0 -147 -153h283z" />
    <glyph glyph-name="Ydieresis" unicode="&#x178;" horiz-adv-x="578" 
d="M321 0h-64v232l-220 418h68l184 -364l185 364h67l-220 -418v-232zM232 701h-70v80h70v-80zM415 701h-70v80h70v-80z" />
    <glyph glyph-name="florin" unicode="&#x192;" horiz-adv-x="299" 
d="M99 -7q-18 -89 -111 -89q-47 0 -79 27l21 34q22 -17 50 -17q53 0 63 52l80 382h-80l8 38h81l13 67q24 117 126 117q28 0 65 -13l-14 -38q-15 7 -44 7q-62 -1 -78 -76l-13 -64h85l-9 -38h-83z" />
    <glyph glyph-name="circumflex" unicode="&#x2c6;" horiz-adv-x="424" 
d="M325 513h-50l-63 92l-63 -92h-50l89 127h48z" />
    <glyph glyph-name="caron" unicode="&#x2c7;" horiz-adv-x="424" 
d="M237 513h-48l-89 149h54l59 -107l59 107h54z" />
    <glyph glyph-name="breve" unicode="&#x2d8;" horiz-adv-x="424" 
d="M343 757q-16 -126 -134 -126t-134 126h56q8 -80 78 -80t78 80h56z" />
    <glyph glyph-name="dotaccent" unicode="&#x2d9;" horiz-adv-x="424" 
d="M167 768h90v-90h-90v90z" />
    <glyph glyph-name="ring" unicode="&#x2da;" horiz-adv-x="424" 
d="M212 522q26 0 44 18t18 44t-18 44t-44 18q-27 0 -44 -18q-18 -18 -18 -44t18 -44q17 -18 44 -18zM212 488q-42 0 -70 28q-27 27 -27 68t27 68q28 28 70 28q41 0 70 -28q27 -27 27 -68t-27 -68q-29 -28 -70 -28z" />
    <glyph glyph-name="ogonek" unicode="&#x2db;" horiz-adv-x="424" 
d="M310 -198q-53 -22 -99 -22q-102 0 -102 106q0 56 39 114h54q-37 -55 -37 -110q0 -62 65 -62q33 0 80 22v-48z" />
    <glyph glyph-name="tilde" unicode="&#x2dc;" horiz-adv-x="424" 
d="M354 567q-38 -55 -78 -55q-19 0 -61 24q-43 24 -66 24q-32 0 -53 -46l-27 26q27 60 80 60q26 0 70 -22q43 -23 57 -23q25 0 51 38z" />
    <glyph glyph-name="hungarumlaut" unicode="&#x2dd;" horiz-adv-x="424" 
d="M131 513h-48l72 130h68zM249 513h-48l72 130h68z" />
    <glyph glyph-name="endash" unicode="&#x2013;" horiz-adv-x="487" 
d="M437 224h-387v50h387v-50z" />
    <glyph glyph-name="emdash" unicode="&#x2014;" horiz-adv-x="659" 
d="M609 224h-559v50h559v-50z" />
    <glyph glyph-name="quoteleft" unicode="&#x2018;" horiz-adv-x="240" 
d="M123 450h-72l96 229h42z" />
    <glyph glyph-name="quoteright" unicode="&#x2019;" horiz-adv-x="240" 
d="M93 450h-42l65 229h73z" />
    <glyph glyph-name="quotesinglbase" unicode="&#x201a;" horiz-adv-x="240" 
d="M93 -137h-42l65 229h73z" />
    <glyph glyph-name="quotedblleft" unicode="&#x201c;" horiz-adv-x="365" 
d="M248 450h-72l96 229h42zM123 450h-72l96 229h42z" />
    <glyph glyph-name="quotedblright" unicode="&#x201d;" horiz-adv-x="365" 
d="M93 450h-42l65 229h73zM218 450h-42l66 229h72z" />
    <glyph glyph-name="quotedblbase" unicode="&#x201e;" horiz-adv-x="365" 
d="M93 -137h-42l65 229h73zM218 -137h-42l66 229h72z" />
    <glyph glyph-name="dagger" unicode="&#x2020;" horiz-adv-x="454" 
d="M257 0h-59v505h-135v45h135v187h59v-187h134v-45h-134v-505z" />
    <glyph glyph-name="daggerdbl" unicode="&#x2021;" horiz-adv-x="454" 
d="M257 0h-59v209h-135v44h135v252h-135v45h135v187h59v-187h134v-45h-134v-252h134v-44h-134v-209z" />
    <glyph glyph-name="bullet" unicode="&#x2022;" horiz-adv-x="375" 
d="M303 272q0 -51 -32 -84q-33 -33 -84 -33t-83 33t-32 84t32 84t83 33t84 -33q32 -33 32 -84z" />
    <glyph glyph-name="ellipsis" unicode="&#x2026;" horiz-adv-x="555" 
d="M136 0h-81v85h81v-85zM318 0h-81v85h81v-85zM500 0h-81v85h81v-85z" />
    <glyph glyph-name="perthousand" unicode="&#x2030;" horiz-adv-x="1156" 
d="M262 0h-59l342 652h60zM188 317q98 0 98 143t-98 143t-98 -143t98 -143zM188 274q-149 0 -149 186q0 185 149 185t149 -185q0 -186 -149 -186zM613 36q98 0 98 143t-98 143t-98 -143t98 -143zM613 -7q-149 0 -149 186q0 185 149 185t149 -185q0 -186 -149 -186zM968 36
q98 0 98 143t-98 143t-98 -143t98 -143zM968 -7q-149 0 -149 186q0 185 149 185t149 -185q0 -186 -149 -186z" />
    <glyph glyph-name="guilsinglleft" unicode="&#x2039;" horiz-adv-x="269" 
d="M223 32h-56l-121 189l121 188h56l-118 -188z" />
    <glyph glyph-name="guilsinglright" unicode="&#x203a;" horiz-adv-x="269" 
d="M102 32h-56l118 189l-118 188h56l121 -188z" />
    <glyph glyph-name="fraction" unicode="&#x2044;" horiz-adv-x="144" 
d="M-26 0h-47l253 625h45z" />
    <glyph glyph-name="Euro" unicode="&#x20ac;" horiz-adv-x="513" 
d="M489 35q-74 -45 -164 -45q-105 0 -172 60q-64 58 -85 161h-47l13 35h29q-4 27 -4 62q0 33 4 58h-42l13 35h33q21 105 86 164q67 61 172 61q92 0 164 -44l-21 -43q-59 38 -138 38q-166 0 -204 -176h292l-15 -35h-283q-4 -25 -4 -58q0 -37 4 -62h237l-15 -35h-216
q41 -172 204 -172q76 0 138 38z" />
    <glyph glyph-name="trademark" unicode="&#x2122;" horiz-adv-x="622" 
d="M163 382h-40v235h-85v33h207v-33h-82v-235zM573 382h-40v228l-85 -166h-29l-85 166v-228h-40v268h54l86 -169l86 169h53v-268z" />
    <glyph glyph-name="Ohm" unicode="&#x2126;" horiz-adv-x="658" 
d="M612 0h-221v124q68 32 108 95q42 66 42 146q0 99 -54 154q-56 57 -159 57t-158 -57q-53 -55 -53 -154q0 -80 42 -146q40 -63 108 -95v-124h-221v43h166v60q-153 80 -153 263q0 126 78 196q72 64 192 64t192 -64q78 -70 78 -196q0 -183 -153 -263v-60h166v-43z" />
    <glyph glyph-name="partialdiff" unicode="&#x2202;" horiz-adv-x="524" 
d="M135 515q50 132 170 132q157 0 157 -244q0 -178 -58 -288q-66 -124 -189 -124q-72 0 -113 47q-39 44 -39 112q0 120 117 197q104 67 235 67q0 192 -111 192q-42 0 -79 -32q-36 -30 -53 -77zM215 33q179 0 201 340q-130 0 -221 -68q-85 -63 -85 -140q0 -62 28 -97t77 -35z
" />
    <glyph glyph-name="Delta" unicode="&#x2206;" horiz-adv-x="608" 
d="M532 45l-228 514l-228 -514h456zM603 0h-598l299 658z" />
    <glyph glyph-name="product" unicode="&#x220f;" horiz-adv-x="533" 
d="M463 -139h-53v706h-287v-706h-53v757h393v-757z" />
    <glyph glyph-name="summation" unicode="&#x2211;" horiz-adv-x="518" 
d="M468 -148h-418v45l255 338l-255 338v45h418v-47h-357l246 -324v-24l-246 -324h357v-47z" />
    <glyph glyph-name="radical" unicode="&#x221a;" horiz-adv-x="485" 
d="M256 14h-53l-99 295h-73v48h113l87 -277l198 557h53z" />
    <glyph glyph-name="infinity" unicode="&#x221e;" horiz-adv-x="850" 
d="M327 232q43 33 66 72q-93 102 -160 102q-49 0 -83 -34q-30 -31 -30 -69q0 -49 29 -79q31 -31 84 -31q43 0 94 39zM622 145q-100 0 -200 124q-88 -124 -189 -124q-71 0 -116 44q-46 44 -46 116q0 59 40 100q44 45 120 45q98 0 200 -124q88 124 190 124q72 0 116 -42
q45 -44 45 -116q0 -52 -40 -96q-46 -51 -120 -51zM731 294q0 47 -28 77q-31 31 -84 31q-44 0 -94 -38q-45 -33 -66 -71q90 -104 162 -104q49 0 81 34q29 31 29 71z" />
    <glyph glyph-name="integral" unicode="&#x222b;" horiz-adv-x="355" 
d="M147 -5q-20 -140 -130 -140q-28 0 -57 8l11 41q12 -3 29 -3q42 -6 66.5 16t31.5 90l70 492q20 140 134 140q28 0 47 -5l-10 -40q-13 3 -25 3q-83 0 -97 -105z" />
    <glyph glyph-name="approxequal" unicode="&#x2248;" horiz-adv-x="524" 
d="M459 330q-48 -53 -103 -53q-17 0 -96 32t-100 32q-38 0 -90 -50l-10 48q46 52 110 52q29 0 98 -30q69 -31 94 -31q33 0 86 47zM459 167q-48 -53 -103 -53q-17 0 -96 32t-100 32q-38 0 -90 -50l-10 48q46 52 110 52q29 0 98 -30q69 -31 94 -31q33 0 86 47z" />
    <glyph glyph-name="notequal" unicode="&#x2260;" horiz-adv-x="524" 
d="M454 140h-214l-48 -113h-49l47 113h-120v49h143l46 109h-189v49h212l42 100h50l-43 -100h123v-49h-145l-47 -109h192v-49z" />
    <glyph glyph-name="lessequal" unicode="&#x2264;" horiz-adv-x="524" 
d="M450 104l-376 185v40l376 184v-47l-314 -158l314 -158v-46zM450 27h-376v43h376v-43z" />
    <glyph glyph-name="greaterequal" unicode="&#x2265;" horiz-adv-x="524" 
d="M450 289l-376 -185v46l314 158l-314 158v47l376 -184v-40zM450 27h-376v43h376v-43z" />
    <glyph glyph-name="lozenge" unicode="&#x25ca;" horiz-adv-x="527" 
d="M264 53l162 253l-162 253l-163 -253zM279 3h-31l-195 303l195 303h31l195 -303z" />
    <glyph glyph-name="uni0E33.alt1" horiz-adv-x="397" 
d="M336 0h-61v392q0 113 -108 113q-72 0 -125 -42l-21 41q64 46 154 46q161 0 161 -158v-392zM-208 683q0 -37 -26 -62q-26 -23 -64 -23q-37 0 -62 23q-26 25 -26 62t26 62q25 23 62 23q38 0 64 -23q26 -25 26 -62zM-248 683q0 20 -14 34t-36 14q-21 0 -35 -14t-14 -34
t14 -34t35 -14q22 0 36 14t14 34z" />
    <glyph glyph-name=".null" 
 />
    <glyph glyph-name=".null" 
 />
    <glyph glyph-name="nonmarkingreturn" unicode="&#xd;" horiz-adv-x="240" 
 />
    <glyph glyph-name="uni0E4E.alt1" 
d="M-251 629h-61q-75 0 -75 62q0 56 73 67q-26 16 -26 46q0 24 20 42t53 18h91v-31h-68q-44 0 -44 -33q0 -32 32 -32h20v-30h-33q-67 0 -67 -46q0 -32 44 -32h41v-31z" />
    <glyph glyph-name="currency" unicode="&#xa4;" horiz-adv-x="436" 
d="M368 106l-25 -25l-25 25q-40 -35 -100 -35q-61 0 -102 36l-26 -26l-25 25l28 27q-28 37 -28 91q0 58 33 97l-33 32l25 25l32 -32q38 30 96 30q55 0 93 -30l32 32l25 -25l-32 -31q35 -40 35 -98q0 -51 -29 -92zM332 224q0 51 -32 83t-82 32t-82 -32t-32 -83t32 -83t82 -32
t82 32t32 83z" />
    <glyph glyph-name="brokenbar" unicode="&#xa6;" horiz-adv-x="229" 
d="M141 348h-53v373h53v-373zM141 -146h-53v386h53v-386z" />
    <glyph glyph-name="twosuperior" unicode="&#xb2;" horiz-adv-x="257" 
d="M237 356h-212v50q0 42 84 91q84 50 84 79q0 49 -68 49q-44 0 -84 -27l-14 31q42 31 103 31q107 0 107 -84q0 -47 -80 -94q-81 -48 -84 -72q-3 -9 -3 -20h167v-34z" />
    <glyph glyph-name="threesuperior" unicode="&#xb3;" horiz-adv-x="257" 
d="M37 416q42 -27 88 -27q71 0 71 55q0 60 -74 60h-44v34h48q65 0 65 45q0 41 -69 41q-47 0 -85 -27l-14 34q44 29 103 29q108 0 108 -73q0 -51 -53 -66q59 -19 59 -80q0 -40 -30 -64q-31 -24 -82 -24q-63 0 -105 30z" />
    <glyph glyph-name="onesuperior" unicode="&#xb9;" horiz-adv-x="257" 
d="M238 356h-206v33h82v222l-67 -41l-18 31l94 59h35v-271h80v-33z" />
    <glyph glyph-name="onequarter" unicode="&#xbc;" horiz-adv-x="596" 
d="M178 54h-48l349 547h49zM528 0h-44v60h-159v35l143 209h60v-211h37v-33h-37v-60zM484 93v170l-112 -170h112zM238 356h-202v33h80v222l-67 -41l-18 31l94 59h35v-271h78v-33z" />
    <glyph glyph-name="onehalf" unicode="&#xbd;" horiz-adv-x="596" 
d="M155 54h-48l349 547h48zM238 356h-202v33h80v222l-67 -41l-18 31l94 59h35v-271h78v-33zM565 0h-212v50q0 41 84 91q84 49 84 79q0 49 -68 49q-44 0 -85 -27l-14 31q44 31 104 31q107 0 107 -84q0 -47 -80 -94q-82 -48 -85 -72q-2 -12 -2 -20h167v-34z" />
    <glyph glyph-name="threequarters" unicode="&#xbe;" horiz-adv-x="596" 
d="M155 54h-49l350 547h48zM528 0h-44v60h-159v35l147 209h56v-211h37v-33h-37v-60zM484 93v170l-112 -170h112zM37 416q42 -27 88 -27q71 0 71 55q0 60 -74 60h-44v34h48q65 0 65 45q0 41 -69 41q-47 0 -85 -27l-14 34q44 29 103 29q108 0 108 -73q0 -51 -53 -66
q59 -19 59 -80q0 -40 -30 -64q-31 -24 -82 -24q-63 0 -105 30z" />
    <glyph glyph-name="Eth" unicode="&#xd0;" horiz-adv-x="588" 
d="M66 0v303h-55v47h55v300h190q283 0 283 -325t-283 -325h-190zM254 52q119 0 171 67q50 64 50 206q0 141 -50 206q-53 68 -173 68h-121v-249h162v-47h-162v-251h123z" />
    <glyph glyph-name="multiply" unicode="&#xd7;" horiz-adv-x="524" 
d="M420 45l-159 159l-158 -159l-35 40l157 155l-156 155l36 38l156 -157l157 157l36 -38l-157 -155l158 -155z" />
    <glyph glyph-name="Yacute" unicode="&#xdd;" horiz-adv-x="578" 
d="M321 0h-64v232l-220 418h68l184 -364l185 364h67l-220 -418v-232zM267 701h-48l72 130h68z" />
    <glyph glyph-name="Thorn" unicode="&#xde;" horiz-adv-x="517" 
d="M131 -184h-65v781h65v-184h128q225 0 225 -205q0 -208 -225 -208h-128v-184zM257 50q164 0 164 158q0 155 -166 155h-124v-313h126z" />
    <glyph glyph-name="eth" unicode="&#xf0;" horiz-adv-x="523" 
d="M432 635l-51 -30q92 -85 92 -313q0 -151 -61 -229q-57 -73 -159 -73q-90 0 -146 65q-56 64 -56 161q0 96 55 153q54 55 140 55q129 0 171 -112q-2 198 -84 268l-133 -79l-20 36l113 64q-30 14 -67 14q-34 0 -71 -10l-15 39q44 16 91 16q68 0 117 -30l64 38zM256 38
q64 0 105 52q41 50 41 124q0 72 -42 118q-41 46 -104 46q-65 0 -104 -44q-39 -45 -39 -120t41 -125q41 -51 102 -51z" />
    <glyph glyph-name="yacute" unicode="&#xfd;" horiz-adv-x="507" 
d="M208 -179h-58l73 185l-183 456h62l150 -398l153 398h61zM231 513h-48l72 130h68z" />
    <glyph glyph-name="thorn" unicode="&#xfe;" horiz-adv-x="520" 
d="M127 -188h-61v838h61v-238q53 64 146 64q91 0 144 -64q54 -65 54 -179t-54 -179q-53 -64 -144 -64q-93 0 -146 64v-242zM127 108q45 -73 133 -73q73 0 112 52t39 146t-39 146t-112 52q-88 0 -133 -73v-250z" />
    <glyph glyph-name="Lslash" unicode="&#x141;" horiz-adv-x="477" 
d="M456 0h-390v236l-54 -23v42l54 24v371h65v-347l200 88v-43l-200 -87v-211h325v-50z" />
    <glyph glyph-name="lslash" unicode="&#x142;" horiz-adv-x="193" 
d="M127 0h-61v253l-68 -33v43l68 32v355h61v-331l69 33v-42l-69 -34v-276z" />
    <glyph glyph-name="Scaron" unicode="&#x160;" horiz-adv-x="525" 
d="M76 90q74 -49 170 -49q165 0 165 116q0 61 -46 98q-28 22 -113 56q-93 37 -134 72q-55 48 -55 117q0 75 53 117q54 43 152 43q111 0 186 -56l-28 -41q-70 46 -156 46q-145 0 -145 -108q0 -50 50 -87q34 -26 121 -60q87 -35 122 -66q56 -49 56 -129q0 -81 -63 -126
q-60 -43 -162 -43q-122 0 -199 57zM286 701h-48l-89 149h54l59 -107l59 107h54z" />
    <glyph glyph-name="scaron" unicode="&#x161;" horiz-adv-x="413" 
d="M62 77q55 -42 131 -42q122 0 122 83q0 39 -41 66q-20 13 -89 41q-63 25 -90 48q-41 34 -41 85q0 114 154 114q89 0 147 -42l-24 -38q-49 35 -118 35q-100 0 -100 -70q0 -34 41 -58q14 -9 89 -39q130 -52 130 -141q0 -129 -181 -129q-89 0 -152 48zM231 513h-48l-89 149
h54l59 -107l59 107h54z" />
    <glyph glyph-name="Zcaron" unicode="&#x17d;" horiz-adv-x="553" 
d="M504 0h-455v46l373 553h-347v51h420v-48l-373 -552h382v-50zM300 701h-48l-89 149h54l59 -107l59 107h54z" />
    <glyph glyph-name="zcaron" unicode="&#x17e;" horiz-adv-x="442" 
d="M393 0h-344v40l269 380h-252v42h320v-38l-272 -382h279v-42zM245 513h-48l-89 149h54l59 -107l59 107h54z" />
    <glyph glyph-name="uni0E00" unicode="&#xe00;" 
 />
    <glyph glyph-name="uni0E01" unicode="&#xe01;" horiz-adv-x="556" 
d="M495 0h-61v368q0 133 -160 133q-131 0 -163 -88l83 -47v-24q-59 -17 -59 -84v-258h-61v259q0 75 57 96l-82 48q16 67 79 108q62 39 147 39q102 0 161 -46t59 -131v-373z" />
    <glyph glyph-name="uni0E02" unicode="&#xe02;" horiz-adv-x="506" 
d="M445 131q0 -67 -56 -105q-52 -36 -137 -36t-137 36q-56 38 -56 105v136q0 67 52 109q51 42 51 69q2 27 -11 38q-14 12 -46 11h-55v46h71q99 0 99 -85q0 -49 -50 -93q-50 -43 -50 -81v-143q0 -99 133 -99q131 0 131 99v402h61v-409z" />
    <glyph glyph-name="uni0E03" unicode="&#xe03;" horiz-adv-x="515" 
d="M454 131q0 -67 -56 -105q-52 -36 -137 -36t-137 36q-56 38 -56 105v158q0 44 56 91q56 46 56 73q0 40 -27 44l-58 -57h-40v100h46v-51l53 51q81 0 81 -77q0 -55 -53 -98t-53 -84v-143q0 -99 133 -99q131 0 131 99v402h61v-409z" />
    <glyph glyph-name="uni0E04" unicode="&#xe04;" horiz-adv-x="545" 
d="M484 0h-61v384q0 55 -39 86q-40 31 -112 31t-111 -31t-39 -86v-142q29 43 91 43h78v-48h-82q-62 0 -87 -52v-185h-61v387q0 74 56 118q57 45 155 45t155 -44t57 -119v-387z" />
    <glyph glyph-name="uni0E05" unicode="&#xe05;" horiz-adv-x="545" 
d="M484 0h-61v379q0 100 -71 119l-71 -74h-17l-71 74q-71 -19 -71 -119v-137q29 43 91 43h78v-48h-82q-62 0 -87 -52v-185h-61v400q0 68 40 109q38 39 101 41l69 -72h3l69 72q63 -2 101 -41q40 -41 40 -109v-400z" />
    <glyph glyph-name="uni0E06" unicode="&#xe06;" horiz-adv-x="553" 
d="M492 164q0 -174 -169 -174q-108 0 -195 95l-5 -85h-55v289q0 44 56 91q56 46 56 73q0 40 -27 44l-58 -57h-40v100h46v-51l53 51q81 0 81 -77q0 -55 -53 -98t-53 -84v-117q28 -54 83 -89q55 -36 112 -36q45 0 74 29q33 33 33 95v377h61v-376z" />
    <glyph glyph-name="uni0E07" unicode="&#xe07;" horiz-adv-x="522" 
d="M252 50q76 0 120 71q40 65 40 164q0 94 -35 151q-41 65 -120 65q-30 0 -58 -10l-9 49q35 10 72 10q111 0 165 -80q46 -68 46 -185t-54 -198q-59 -87 -155 -87h-97l-151 423h61l134 -373h41z" />
    <glyph glyph-name="uni0E08" unicode="&#xe08;" horiz-adv-x="523" 
d="M260 50q78 0 118 72q35 62 35 164q0 215 -192 215q-102 0 -166 -43l-21 41q88 51 190 51q250 0 250 -264q0 -127 -55 -204q-57 -82 -160 -82h-85l-44 245h-66v46h112l45 -241h39z" />
    <glyph glyph-name="uni0E09" unicode="&#xe09;" horiz-adv-x="540" 
d="M479 0h-55l-5 85q-87 -95 -187 -95q-160 0 -160 174v137h61v-138q0 -124 98 -124q56 0 108 36q51 34 79 89v200q0 137 -168 137q-102 0 -181 -47l-18 44q88 52 205 52q223 0 223 -177v-373z" />
    <glyph glyph-name="uni0E0A" unicode="&#xe0a;" horiz-adv-x="515" 
d="M445 131q0 -67 -56 -105q-52 -36 -137 -36t-137 36q-56 38 -56 105v136q0 67 52 109q51 42 51 69q2 27 -11 38q-14 12 -46 11h-55v46h71q99 0 99 -85q0 -49 -50 -93q-50 -43 -50 -81v-143q0 -99 133 -99q131 0 131 99v181q0 69 -78 76v33l98 112h69l-109 -122
q81 -16 81 -97v-190z" />
    <glyph glyph-name="uni0E0B" unicode="&#xe0b;" horiz-adv-x="524" 
d="M454 131q0 -67 -56 -105q-52 -36 -137 -36t-137 36q-56 38 -56 105v158q0 44 56 91q56 46 56 73q0 40 -27 44l-58 -57h-40v100h46v-51l53 51q81 0 81 -77q0 -55 -53 -98t-53 -84v-143q0 -99 133 -99q131 0 131 99v181q0 71 -78 78v31l98 112h69l-110 -123q82 -16 82 -96
v-190z" />
    <glyph glyph-name="uni0E0C" unicode="&#xe0c;" horiz-adv-x="856" 
d="M795 164q0 -89 -33 -130q-36 -44 -114 -44q-102 0 -172 98l-5 -88h-55v368q0 133 -152 133q-121 0 -153 -88l83 -47v-24q-59 -17 -59 -84v-156q0 -56 55 -56h48v-46h-67q-97 0 -97 95v164q0 75 57 96l-82 48q16 68 75 108q58 39 142 39q102 0 156 -45q55 -46 55 -131
v-207q69 -128 172 -128q85 0 85 124v377h61v-376z" />
    <glyph glyph-name="uni0E0D" unicode="&#xe0d;" horiz-adv-x="856" 
d="M795 211q0 -95 -53 -139q51 -19 51 -77q0 -56 -50 -86q-49 -29 -132 -29q-103 0 -168 39l22 43q50 -34 140 -34q130 0 130 70q0 43 -40 53q-39 -19 -95 -19q-184 0 -184 179v157q0 133 -152 133q-121 0 -153 -88l83 -47v-24q-59 -17 -59 -84v-156q0 -56 55 -56h48v-46
h-67q-97 0 -97 95v164q0 75 57 96l-82 48q16 68 75 108q58 39 142 39q102 0 156 -45q55 -46 55 -131v-157q0 -136 128 -136q129 0 129 136v323h61v-329z" />
    <glyph glyph-name="uni0E0E" unicode="&#xe0e;" horiz-adv-x="568" 
d="M507 -180h-60q-92 67 -152 67q-65 0 -76 -67h-52q17 110 123 110q74 0 155 -59v497q0 133 -159 133q-133 0 -163 -88l86 -47v-24q-48 -14 -48 -78v-183q0 -81 -86 -81h-50v46h29q45 0 45 44v171q0 75 47 94l-85 48q15 67 79 108q62 39 147 39q102 0 161 -46t59 -131v-553
z" />
    <glyph glyph-name="uni0E0F" unicode="&#xe0f;" horiz-adv-x="568" 
d="M507 -180h-62l-119 55q-28 -60 -101 -60q-59 0 -99 37l21 37q30 -32 78 -32q65 0 81 74l139 -63v500q0 133 -159 133q-133 0 -163 -88l86 -47v-24q-48 -14 -48 -78v-183q0 -81 -86 -81h-50v46h29q45 0 45 44v171q0 75 47 94l-85 48q15 67 79 108q62 39 147 39
q102 0 161 -46t59 -131v-553z" />
    <glyph glyph-name="uni0E10" unicode="&#xe10;" horiz-adv-x="531" 
d="M381 -148q29 17 29 52q0 24 -14 46h47q14 -21 14 -45q0 -67 -76 -102l-122 65q-27 -64 -97 -64q-56 0 -96 43l25 35q34 -34 74 -34q62 0 80 75zM174 0l-44 245h-66v46h112l45 -241q25 0 37 1q80 2 120 71q35 61 35 164q0 215 -192 215q-96 0 -166 -47l-21 45
q85 51 192 51q34 0 72 -7l184 47v-53l-120 -19q112 -52 112 -232q0 -127 -57 -204q-60 -82 -163 -82h-80z" />
    <glyph glyph-name="uni0E11" unicode="&#xe11;" horiz-adv-x="552" 
d="M491 0h-61v390q0 63 -16 87t-56 24q-53 0 -139 -100q-56 -67 -60 -74q-31 -50 -31 -114v-213h-61v208q0 94 66 169q47 51 47 79q0 38 -28 41l-57 -57h-41v100h46v-50l49 50q77 0 80 -68q71 78 142 78q65 0 93 -38q27 -36 27 -119v-393z" />
    <glyph glyph-name="uni0E12" unicode="&#xe12;" horiz-adv-x="863" 
d="M802 164q0 -89 -33 -130q-36 -44 -114 -44q-102 0 -172 98l-5 -88h-55v379q0 100 -71 119l-71 -74h-17l-72 74q-70 -18 -70 -119v-330q131 77 170 210h-85v42h131v-40q-39 -175 -218 -261h-59v391q0 72 38 115q38 42 103 44l69 -72h4l67 72q63 -2 102 -41q40 -40 40 -108
v-234q69 -128 172 -128q85 0 85 124v377h61v-376z" />
    <glyph glyph-name="uni0E13" unicode="&#xe13;" horiz-adv-x="856" 
d="M795 0h-55l-5 88q-70 -98 -172 -98q-78 0 -114 44q-33 41 -33 130v204q0 133 -152 133q-121 0 -153 -88l83 -47v-24q-59 -17 -59 -84v-156q0 -56 55 -56h48v-46h-67q-97 0 -97 95v164q0 75 57 96l-82 48q16 68 75 108q58 39 142 39q102 0 156 -45q55 -46 55 -131v-211
q0 -124 85 -124q103 0 172 128v373h61v-540z" />
    <glyph glyph-name="uni0E14" unicode="&#xe14;" horiz-adv-x="557" 
d="M496 0h-61v383q0 56 -43 87q-42 31 -113 31t-113 -31q-44 -32 -44 -87v-334q132 70 165 210h-80v42h131v-40q-39 -175 -218 -261h-59v386q0 74 60 119t158 45q97 0 157 -45t60 -119v-386z" />
    <glyph glyph-name="uni0E15" unicode="&#xe15;" horiz-adv-x="557" 
d="M496 0h-61v379q0 99 -75 119l-73 -74h-17l-74 74q-74 -20 -74 -119v-330q132 70 165 210h-80v42h131v-40q-39 -175 -218 -261h-59v391q0 72 40 115q40 42 105 44l71 -72h4l69 72q65 -2 105 -44q41 -43 41 -115v-391z" />
    <glyph glyph-name="uni0E16" unicode="&#xe16;" horiz-adv-x="556" 
d="M495 0h-61v368q0 133 -160 133q-131 0 -163 -88l83 -47v-24q-59 -17 -59 -84v-156q0 -56 55 -56h48v-46h-67q-97 0 -97 95v164q0 75 57 96l-82 48q16 67 79 108q62 39 147 39q102 0 161 -46t59 -131v-373z" />
    <glyph glyph-name="uni0E17" unicode="&#xe17;" horiz-adv-x="551" 
d="M490 0h-61v377q0 124 -114 124q-86 0 -188 -112v-389h-61v540h56l5 -92q100 102 203 102q160 0 160 -170v-380z" />
    <glyph glyph-name="uni0E18" unicode="&#xe18;" horiz-adv-x="528" 
d="M479 135q0 -71 -59 -109q-56 -36 -153 -36t-152 39t-55 109v100h61v-89q0 -110 149 -110q148 0 148 98v56q0 51 -40 74q-32 19 -134 39q-103 20 -143 43q-51 30 -51 85q0 116 212 116q134 0 214 -52l-22 -45q-70 48 -188 48q-159 0 -159 -65q0 -31 33 -48t123 -33
q116 -20 164 -54q52 -37 52 -106v-60z" />
    <glyph glyph-name="uni0E19" unicode="&#xe19;" horiz-adv-x="546" 
d="M485 0h-55l-6 92q-99 -102 -198 -102q-165 0 -165 174v376h61v-373q0 -128 119 -128q81 0 183 112v389h61v-540z" />
    <glyph glyph-name="uni0E1A" unicode="&#xe1a;" horiz-adv-x="551" 
d="M490 156q0 -78 -58 -122q-57 -44 -157 -44t-156 44q-58 44 -58 122v384h61v-381q0 -120 153 -120q154 0 154 120v381h61v-384z" />
    <glyph glyph-name="uni0E1B" unicode="&#xe1b;" horiz-adv-x="551" 
d="M490 156q0 -78 -58 -122q-57 -44 -157 -44t-156 44q-58 44 -58 122v384h61v-381q0 -120 153 -120q154 0 154 120v553h61v-556z" />
    <glyph glyph-name="uni0E1C" unicode="&#xe1c;" horiz-adv-x="616" 
d="M498 0h-65l-125 324l-124 -324h-66l-69 540h142v-43h-79l52 -410l119 291h50l120 -291l54 453h60z" />
    <glyph glyph-name="uni0E1D" unicode="&#xe1d;" horiz-adv-x="617" 
d="M498 0h-65l-125 324l-124 -324h-66l-69 540h142v-43h-79l52 -410l119 291h50l120 -291l76 625h58z" />
    <glyph glyph-name="uni0E1E" unicode="&#xe1e;" horiz-adv-x="664" 
d="M527 0h-68l-127 444l-127 -444h-68l-87 540h59l73 -449l125 426h50l125 -426l73 449h59z" />
    <glyph glyph-name="uni0E1F" unicode="&#xe1f;" horiz-adv-x="661" 
d="M527 0h-68l-127 444l-127 -444h-68l-87 540h59l73 -449l125 426h50l125 -426l92 621h57z" />
    <glyph glyph-name="uni0E20" unicode="&#xe20;" horiz-adv-x="568" 
d="M507 0h-62v368q0 133 -159 133q-133 0 -163 -88l86 -47v-24q-48 -14 -48 -78v-183q0 -81 -86 -81h-50v46h29q45 0 45 44v171q0 75 47 94l-85 48q15 67 79 108q62 39 147 39q102 0 161 -46t59 -131v-373z" />
    <glyph glyph-name="uni0E21" unicode="&#xe21;" horiz-adv-x="551" 
d="M490 160q0 -170 -160 -170q-104 0 -203 102l-6 -92h-55v540h61v-375q108 -126 201 -126q101 0 101 124v377h61v-380z" />
    <glyph glyph-name="uni0E22" unicode="&#xe22;" horiz-adv-x="555" 
d="M494 153q0 -76 -60 -120q-59 -43 -161 -43q-105 0 -162 45q-58 44 -58 123q0 110 90 135q-85 33 -85 127q0 59 41 95q41 35 107 35q46 0 75 -10l-4 -46q-22 8 -63 8q-95 0 -95 -86q0 -98 99 -98h65v-46h-54q-51 0 -81 -27q-34 -30 -34 -85q0 -121 157 -121q73 0 116 29
q46 31 46 88v384h61v-387z" />
    <glyph glyph-name="uni0E23" unicode="&#xe23;" horiz-adv-x="487" 
d="M69 90q74 -51 172 -51q62 0 100 27q36 27 36 69q0 48 -34 76q-32 27 -114 53q-166 52 -166 155q0 60 47 95q48 36 135 36q108 0 180 -49l-22 -43q-67 43 -156 43q-60 0 -94 -23q-31 -22 -31 -56q0 -38 34 -63q30 -22 103 -45q95 -31 135 -67q45 -41 45 -108
q0 -63 -49 -104q-54 -45 -146 -45q-116 0 -196 57z" />
    <glyph glyph-name="uni0E24" unicode="&#xe24;" horiz-adv-x="556" 
d="M495 -181h-61v549q0 133 -160 133q-131 0 -163 -88l83 -47v-24q-59 -17 -59 -84v-156q0 -56 55 -56h48v-46h-67q-97 0 -97 95v164q0 75 57 96l-82 48q16 67 79 108q62 39 147 39q102 0 161 -46t59 -131v-554z" />
    <glyph glyph-name="uni0E25" unicode="&#xe25;" horiz-adv-x="535" 
d="M474 0h-61v270q-164 0 -230 -26q-73 -28 -73 -103q0 -103 113 -103q25 0 49 7l9 -44q-28 -11 -70 -11q-71 0 -115 37q-47 39 -47 109q0 114 108 155q78 29 256 29v53q0 67 -32 97q-35 31 -119 31q-100 0 -163 -47l-22 43q80 53 190 53q108 0 157 -44q50 -46 50 -150v-356
z" />
    <glyph glyph-name="uni0E26" unicode="&#xe26;" horiz-adv-x="568" 
d="M507 -181h-62v549q0 133 -159 133q-133 0 -163 -88l86 -47v-24q-48 -14 -48 -78v-183q0 -81 -86 -81h-50v46h29q45 0 45 44v171q0 75 47 94l-85 48q15 67 79 108q62 39 147 39q102 0 161 -46t59 -131v-554z" />
    <glyph glyph-name="uni0E27" unicode="&#xe27;" horiz-adv-x="495" 
d="M79 80q57 -41 140 -41q91 0 131 60q37 55 37 171q0 231 -174 231q-85 0 -144 -43l-21 41q74 51 169 51q229 0 229 -280t-223 -280q-92 0 -166 49z" />
    <glyph glyph-name="uni0E28" unicode="&#xe28;" horiz-adv-x="541" 
d="M484 0h-61v384q0 55 -39 86q-40 31 -112 31t-111 -31t-39 -86v-142q29 43 91 43h78v-48h-82q-62 0 -87 -52v-185h-61v387q0 74 56 118q57 45 155 45q27 0 57 -5l175 45v-53l-103 -16q83 -40 83 -134v-387z" />
    <glyph glyph-name="uni0E29" unicode="&#xe29;" horiz-adv-x="565" 
d="M490 156q0 -78 -58 -122q-57 -44 -157 -44t-156 44q-58 44 -58 122v384h61v-381q0 -120 153 -120q154 0 154 120v125h-149v48h149v208h61v-208h50v-48h-50v-128z" />
    <glyph glyph-name="uni0E2A" unicode="&#xe2a;" horiz-adv-x="535" 
d="M474 0h-61v270q-164 0 -230 -26q-73 -28 -73 -103q0 -103 113 -103q25 0 49 7l9 -44q-28 -11 -70 -11q-71 0 -115 37q-47 39 -47 109q0 114 108 155q78 29 256 29v53q0 67 -32 97q-35 31 -119 31q-100 0 -163 -47l-22 43q80 53 190 53q28 0 52 -3l169 43v-51l-100 -13
q86 -34 86 -170v-356z" />
    <glyph glyph-name="uni0E2B" unicode="&#xe2b;" horiz-adv-x="546" 
d="M485 0h-61v173q0 110 -113 110h-184v-283h-61v540h61v-206h184q113 0 113 125v81h61v-82q0 -123 -96 -151q45 -7 71 -43q25 -36 25 -88v-176z" />
    <glyph glyph-name="uni0E2C" unicode="&#xe2c;" horiz-adv-x="653" 
d="M526 0h-67l-128 318l-128 -318h-67l-87 540h59l73 -473l125 311h50l125 -311l50 360q1 4 1 12q0 54 -76 62v29l99 101h65l-105 -108q71 -13 71 -84q0 -9 -1 -14z" />
    <glyph glyph-name="uni0E2D" unicode="&#xe2d;" horiz-adv-x="530" 
d="M119 61q45 -22 118 -22q183 0 183 239q0 223 -187 223q-94 0 -163 -44l-21 45q76 48 187 48q245 0 245 -272q0 -288 -246 -288q-102 0 -177 33v274h161v-48h-100v-188z" />
    <glyph glyph-name="uni0E2E" unicode="&#xe2e;" horiz-adv-x="530" 
d="M119 61q45 -22 118 -22q183 0 183 239q0 223 -187 223q-94 0 -163 -44l-21 45q76 48 187 48q28 0 56 -5l174 45v-53l-106 -16q121 -52 121 -243q0 -288 -246 -288q-102 0 -177 33v274h161v-48h-100v-188z" />
    <glyph glyph-name="uni0E2F" unicode="&#xe2f;" horiz-adv-x="468" 
d="M407 0h-61v375q-51 -76 -146 -76q-139 0 -139 139v104h61v-103q0 -96 90 -96q89 0 134 97v102h61v-542z" />
    <glyph glyph-name="uni0E30" unicode="&#xe30;" horiz-adv-x="289" 
d="M244 375h-136q-59 0 -59 59v40h55v-31q0 -22 24 -22h116v-46zM244 63h-136q-59 0 -59 59v40h55v-31q0 -23 24 -23h116v-45z" />
    <glyph glyph-name="uni0E31" unicode="&#xe31;" 
d="M39 629h-278q-60 0 -60 59v49h55v-37q0 -25 25 -25h258v-46z" />
    <glyph glyph-name="uni0E32" unicode="&#xe32;" horiz-adv-x="397" 
d="M336 0h-61v392q0 113 -108 113q-72 0 -125 -42l-21 41q64 46 154 46q161 0 161 -158v-392z" />
    <glyph glyph-name="uni0E33" unicode="&#xe33;" horiz-adv-x="397" 
d="M336 0h-61v392q0 113 -108 113q-72 0 -125 -42l-21 41q64 46 154 46q161 0 161 -158v-392zM-43 683q0 -37 -26 -62q-26 -23 -64 -23q-37 0 -62 23q-26 25 -26 62t26 62q25 23 62 23q38 0 64 -23q26 -25 26 -62zM-83 683q0 20 -14 34t-36 14q-21 0 -35 -14t-14 -34t14 -34
t35 -14q22 0 36 14t14 34z" />
    <glyph glyph-name="uni0E34" unicode="&#xe34;" 
d="M-57 629h-389v46h389v-46z" />
    <glyph glyph-name="uni0E35" unicode="&#xe35;" 
d="M-57 629h-389v46h331v70h58v-116z" />
    <glyph glyph-name="uni0E36" unicode="&#xe36;" 
d="M-164 675q-5 10 -5 22q0 26 17 44q18 18 48 18q31 0 49 -18q19 -18 19 -47t-19 -47q-20 -18 -50 -18h-341v46h282zM-104 663q31 0 31 31t-31 31t-31 -31t31 -31z" />
    <glyph glyph-name="uni0E37" unicode="&#xe37;" 
d="M-57 629h-389v46h246v70h47v-70h47v70h49v-116z" />
    <glyph glyph-name="uni0E38" unicode="&#xe38;" 
d="M-57 -258h-60v109q0 24 -28 24h-40v45h58q70 0 70 -54v-124z" />
    <glyph glyph-name="uni0E39" unicode="&#xe39;" 
d="M-57 -176q0 -86 -109 -86q-106 0 -106 81v35q0 22 -18 22h-33v44h63q40 0 40 -42v-54q0 -45 54 -45q55 0 55 45v96h54v-96z" />
    <glyph glyph-name="uni0E3A" unicode="&#xe3a;" 
d="M-47 -114q0 -41 -42 -41q-41 0 -41 41t41 41q42 0 42 -41z" />
    <glyph glyph-name="uni0E3F" unicode="&#xe3f;" horiz-adv-x="550" 
d="M263 -77h-56v77h-141v650h141v78h56v-78q216 -1 216 -161q0 -124 -114 -156v-1q134 -24 134 -155q0 -102 -66 -143q-54 -33 -170 -34v-77zM284 50q76 0 112 28q39 31 39 101q0 65 -40 95q-41 31 -133 31h-131v-255h153zM261 354q74 0 114 34q41 34 41 95q0 117 -145 117
h-140v-246h130z" />
    <glyph glyph-name="uni0E40" unicode="&#xe40;" horiz-adv-x="234" 
d="M200 0h-51q-87 0 -87 93v447h61v-440q0 -31 10 -42q10 -12 36 -12h31v-46z" />
    <glyph glyph-name="uni0E41" unicode="&#xe41;" horiz-adv-x="431" 
d="M200 0h-51q-87 0 -87 93v447h61v-440q0 -31 10 -42q10 -12 36 -12h31v-46zM397 0h-50q-88 0 -88 93v447h62v-440q0 -31 10 -42q9 -12 35 -12h31v-46z" />
    <glyph glyph-name="uni0E42" unicode="&#xe42;" horiz-adv-x="264" 
d="M231 0h-50q-88 0 -88 93v496q0 105 -112 137q5 56 58 89q46 28 111 28q81 0 136 -44l-21 -39q-42 40 -115 40q-94 0 -114 -55q118 -31 118 -155v-490q0 -31 10 -42q10 -12 36 -12h31v-46z" />
    <glyph glyph-name="uni0E43" unicode="&#xe43;" horiz-adv-x="286" 
d="M252 0h-50q-87 0 -87 93v444q0 40 49 100q49 59 49 95q0 68 -81 68q-84 0 -99 -76h-51q5 60 48 91q40 28 100 28q142 0 142 -108q0 -47 -48 -105q-48 -59 -48 -108v-422q0 -31 10 -42q10 -12 36 -12h30v-46z" />
    <glyph glyph-name="uni0E44" unicode="&#xe44;" horiz-adv-x="267" 
d="M233 0h-50q-87 0 -87 93v528q0 118 97 174h-212v43h266v-54q-90 -47 -90 -163v-521q0 -31 10 -42q10 -12 36 -12h30v-46z" />
    <glyph glyph-name="uni0E45" unicode="&#xe45;" horiz-adv-x="396" 
d="M335 -181h-61v573q0 113 -107 113q-74 0 -125 -42l-21 41q64 46 154 46q160 0 160 -158v-573z" />
    <glyph glyph-name="uni0E46" unicode="&#xe46;" horiz-adv-x="509" 
d="M441 -146h-61v512q0 110 -58 137l-77 -76l-84 76q-58 -28 -58 -106q0 -93 75 -93q26 0 46 11v-40q-22 -12 -59 -12q-116 0 -116 132q0 60 32 103q32 42 88 54l76 -68l70 68q71 -11 100 -57q26 -42 26 -133v-508z" />
    <glyph glyph-name="uni0E47" unicode="&#xe47;" 
d="M-98 625h-66l-79 45l-89 -46q-46 0 -74 26q-27 24 -27 63q0 41 28 65q29 24 79 24h249v-40h-243q-64 0 -64 -49q0 -47 44 -51l96 49l87 -47h59v-39z" />
    <glyph glyph-name="uni0E48" unicode="&#xe48;" 
d="M-58 805h-56v112h56v-112z" />
    <glyph glyph-name="uni0E49" unicode="&#xe49;" 
d="M31 805h-229v45q0 22 -23 22h-26v38h52q46 0 46 -48v-20h180v-37z" />
    <glyph glyph-name="uni0E4A" unicode="&#xe4a;" 
d="M71 805h-139v21q0 39 -25 49l-64 -62l-64 62q-25 -10 -25 -49v-21h-45v35q0 70 81 74l53 -56l55 56q75 -5 78 -75h95v-34z" />
    <glyph glyph-name="uni0E4B" unicode="&#xe4b;" 
d="M3 855h-63v-50h-51v50h-64v33h64v50h51v-50h63v-33z" />
    <glyph glyph-name="uni0E4C" unicode="&#xe4c;" 
d="M-30 799h-90q-32 0 -32 -29v-24h-53v29q0 62 72 62h103v-38z" />
    <glyph glyph-name="uni0E4D" unicode="&#xe4d;" 
d="M-43 683q0 -37 -26 -62q-26 -23 -64 -23q-37 0 -62 23q-26 25 -26 62t26 62q25 23 62 23q38 0 64 -23q26 -25 26 -62zM-83 683q0 20 -14 34t-36 14q-21 0 -35 -14t-14 -34t14 -34t35 -14q22 0 36 14t14 34z" />
    <glyph glyph-name="uni0E4E" unicode="&#xe4e;" 
d="M-184 629h-61q-75 0 -75 62q0 56 73 67q-26 16 -26 46q0 24 20 42t53 18h91v-31h-68q-44 0 -44 -33q0 -32 32 -32h20v-30h-33q-67 0 -67 -46q0 -32 44 -32h41v-31z" />
    <glyph glyph-name="uni0E4F" unicode="&#xe4f;" horiz-adv-x="596" 
d="M526 218q0 -100 -66 -163q-64 -62 -162 -62t-162 62q-66 63 -66 163t66 163q64 62 162 62t162 -62q66 -63 66 -163zM492 218q0 85 -56 139q-54 53 -138 53t-138 -53q-56 -54 -56 -139t56 -139q54 -53 138 -53t138 53q56 54 56 139zM422 218q0 -55 -35 -89t-89 -34t-89 34
t-35 89t35 89t89 34t89 -34t35 -89zM389 218q0 42 -25 66t-66 24q-40 0 -65 -24q-26 -25 -26 -66t26 -66q25 -24 65 -24q41 0 66 24t25 66z" />
    <glyph glyph-name="uni0E50" unicode="&#xe50;" horiz-adv-x="590" 
d="M295 -10q-116 0 -182 71q-59 64 -59 166t59 167q65 71 182 71q116 0 182 -71q59 -65 59 -167t-59 -166q-65 -71 -182 -71zM295 36q89 0 138 56q45 52 45 135q0 82 -45 134q-50 57 -138 57t-138 -57q-45 -52 -45 -134q0 -83 45 -135q49 -56 138 -56z" />
    <glyph glyph-name="uni0E51" unicode="&#xe51;" horiz-adv-x="590" 
d="M337 124q-38 -19 -87 -19q-90 0 -144 50q-52 48 -52 124q0 90 64 141q65 50 178 50q115 0 179 -59q64 -60 64 -168q0 -129 -75 -206q-79 -81 -221 -81q-61 0 -92 8v46q45 -8 94 -8q114 0 177 66q60 64 60 175q0 180 -190 180q-86 0 -134 -39q-47 -38 -47 -105
q0 -57 39 -92q40 -37 111 -37q36 0 62 11z" />
    <glyph glyph-name="uni0E52" unicode="&#xe52;" horiz-adv-x="579" 
d="M535 0h-351q-59 0 -93 30q-33 30 -33 85v386q0 49 -5 68h57q4 -15 4 -64v-380q0 -77 93 -77h272v366h-145q-87 0 -87 -95q0 -86 85 -86q32 0 66 16l4 -42q-44 -18 -83 -18q-55 0 -89 33q-35 35 -35 96q0 67 35 105q35 39 99 39h206v-462z" />
    <glyph glyph-name="uni0E53" unicode="&#xe53;" horiz-adv-x="597" 
d="M532 0h-56v421l-149 -93l-114 91q-105 -28 -105 -182q0 -93 40 -147q42 -58 121 -58q30 0 58 12l11 -38q-30 -16 -85 -16q-98 0 -151 68q-50 64 -50 179q0 98 46 162q46 62 119 67l112 -85l136 81h67v-462z" />
    <glyph glyph-name="uni0E54" unicode="&#xe54;" horiz-adv-x="583" 
d="M529 0h-248q-120 0 -183 62q-61 58 -61 164q0 107 72 171q73 65 198 65h142q47 0 47 36v76h49v-86q0 -30 -19 -50q-23 -24 -66 -24h-153q-103 0 -159 -52q-55 -49 -55 -134q0 -184 194 -184h84q-36 12 -64 47q-31 37 -31 74v40q0 77 87 77h66v-37h-62q-41 0 -41 -40v-42
q0 -42 52 -82q49 -37 92 -37h59v-44z" />
    <glyph glyph-name="uni0E55" unicode="&#xe55;" horiz-adv-x="583" 
d="M529 0h-248q-120 0 -183 62q-61 58 -61 164q0 89 53 151q53 61 147 78q-19 15 -19 49q0 70 74 70q75 0 75 -70q0 -24 -16 -42h98q47 0 47 36v76h49v-86q0 -30 -19 -50q-23 -24 -66 -24h-153q-103 0 -159 -52q-55 -49 -55 -134q0 -184 194 -184h84q-36 12 -64 47
q-31 37 -31 74v40q0 77 87 77h66v-37h-62q-41 0 -41 -40v-42q0 -42 52 -82q49 -37 92 -37h59v-44zM292 467q40 0 40 38q0 39 -40 39q-39 0 -39 -39q0 -38 39 -38z" />
    <glyph glyph-name="uni0E56" unicode="&#xe56;" horiz-adv-x="582" 
d="M131 175q7 -63 55 -102q47 -39 118 -39q88 0 138 55q46 46 46 141q0 84 -45 135q-50 55 -142 55q-129 0 -194 -81h-54v162q0 38 -19 68l48 11q21 -34 21 -75v-109q70 74 204 74q110 0 174 -66q63 -66 63 -174q0 -107 -63 -172q-66 -68 -178 -68q-99 0 -161 51
q-61 50 -70 134h59z" />
    <glyph glyph-name="uni0E57" unicode="&#xe57;" horiz-adv-x="732" 
d="M681 118q-5 -57 -67 -89q-56 -29 -135 -29h-39v419l-128 -91l-99 91q-105 -28 -105 -182q0 -93 40 -147q42 -58 121 -58q30 0 58 12l11 -38q-30 -16 -85 -16q-98 0 -151 68q-50 64 -50 179q0 98 46 162q46 62 119 67l97 -85l119 81h62v-418q50 3 89 23q42 22 42 50v397
q0 34 29 68l48 -14q-22 -31 -22 -63v-387z" />
    <glyph glyph-name="uni0E58" unicode="&#xe58;" horiz-adv-x="586" 
d="M433 0l-134 139l-101 -139h-34q-127 38 -127 227q0 111 59 172q61 63 180 63h173q47 0 47 36v76h49v-86q0 -30 -19 -50q-23 -24 -66 -24h-176q-191 0 -191 -186q0 -144 89 -180l104 142h23l142 -149q48 68 48 148q0 34 -13 48q-14 14 -46 14v44q108 0 108 -100
q0 -87 -60 -195h-55z" />
    <glyph glyph-name="uni0E59" unicode="&#xe59;" horiz-adv-x="592" 
d="M547 0h-56l-154 413h-117q-51 0 -83 -55q-29 -50 -29 -119q0 -93 39 -147q40 -56 117 -58q31 0 56 9l8 -41q-32 -12 -73 -12q-99 0 -152 67q-51 64 -51 181q0 101 46 163q46 61 121 61h154l41 -104h58q31 0 31 28v103q0 58 22 91l43 -10q-20 -31 -20 -62v-137
q0 -25 -18 -40t-46 -15h-53z" />
    <glyph glyph-name="uni0E5B" unicode="&#xe5b;" horiz-adv-x="1203" 
d="M1186 206h-160q-46 0 -68 39l-41 70l-90 -184h-48l-84 170q-43 -130 -137 -208q-99 -82 -223 -82q-126 0 -206 68q-90 76 -90 211q0 107 72 180q74 75 186 75q106 0 170 -62q57 -56 63 -143h-49q-21 158 -184 158q-97 0 -154 -65q-53 -59 -53 -142q0 -116 72 -178
q66 -56 177 -56q120 0 212 88q86 83 117 208h51l84 -168l87 172h51l50 -83q15 -25 50 -25h145v-43z" />
    <glyph glyph-name="zerowidthnonjoiner" unicode="&#x200c;" 
 />
    <glyph glyph-name="zerowidthjoiner" unicode="&#x200d;" 
 />
    <glyph glyph-name="lefttorightmark" unicode="&#x200e;" 
 />
    <glyph glyph-name="righttoleftmark" unicode="&#x200f;" 
 />
    <glyph glyph-name="minute" unicode="&#x2032;" horiz-adv-x="210" 
d="M115 434h-39v97l7 79h64l-8 -78z" />
    <glyph glyph-name="second" unicode="&#x2033;" horiz-adv-x="296" 
d="M97 434h-40v97l7 79h64l-8 -78zM224 434h-40v97l8 79h64l-8 -78z" />
    <glyph glyph-name="uni2113" unicode="&#x2113;" horiz-adv-x="524" 
d="M423 24q-46 -34 -131 -34q-145 0 -145 119v125q-27 -11 -72 -20v41q39 7 72 20v227q0 79 34 121q30 38 79 38q114 0 114 -152q0 -174 -180 -258v-140q0 -81 107 -81q52 0 103 27zM194 293q136 77 136 217q0 113 -68 113t-68 -124v-206z" />
    <glyph glyph-name="estimated" unicode="&#x212e;" horiz-adv-x="561" 
d="M495 88q-70 -98 -207 -98q-129 0 -198 79q-60 69 -60 173q0 103 55 167q66 75 197 75q249 0 249 -243v-13h-434v-112q0 -45 67 -76q60 -28 125 -28q118 0 181 76h25zM467 250v123q0 38 -56 65t-129 27t-128 -27q-57 -27 -57 -65v-123h370z" />
    <glyph glyph-name="minus" unicode="&#x2212;" horiz-adv-x="524" 
d="M456 252h-388v47h388v-47z" />
    <glyph glyph-name="dottedcircle" unicode="&#x25cc;" horiz-adv-x="553" 
d="M297 513q0 -21 -20 -21t-20 21t20 21t20 -21zM205 493q0 -21 -20 -21t-20 21t20 21t20 -21zM389 493q0 -21 -20 -21t-20 21t20 21t20 -21zM131 442q0 -21 -20 -21t-20 21t20 21t20 -21zM463 442q0 -21 -20 -21t-20 21t20 21t20 -21zM83 370q0 -21 -20 -21t-20 21t20 21
t20 -21zM511 370q0 -21 -20 -21t-20 21t20 21t20 -21zM65 282q0 -21 -20 -21t-20 21t20 21t20 -21zM529 282q0 -21 -20 -21t-20 21t20 21t20 -21zM297 51q0 -21 -20 -21t-20 21t20 21t20 -21zM205 71q0 -21 -20 -21t-20 21t20 21t20 -21zM389 71q0 -21 -20 -21t-20 21t20 21
t20 -21zM131 122q0 -21 -20 -21t-20 21t20 21t20 -21zM463 122q0 -21 -20 -21t-20 21t20 21t20 -21zM83 194q0 -21 -20 -21t-20 21t20 21t20 -21zM511 194q0 -21 -20 -21t-20 21t20 21t20 -21z" />
    <glyph glyph-name="uni0E10.alt1" unicode="&#xf700;" horiz-adv-x="531" 
d="M174 0l-44 245h-66v46h112l45 -241q25 0 37 1q80 2 120 71q35 61 35 164q0 215 -192 215q-96 0 -166 -47l-21 45q85 51 192 51q34 0 72 -7l184 47v-53l-120 -19q112 -52 112 -232q0 -127 -57 -204q-60 -82 -163 -82h-80z" />
    <glyph glyph-name="uni0E34.alt1" unicode="&#xf701;" 
d="M-197 629h-369v46h369v-46z" />
    <glyph glyph-name="uni0E35.alt1" unicode="&#xf702;" 
d="M-197 629h-369v46h311v70h58v-116z" />
    <glyph glyph-name="uni0E36.alt1" unicode="&#xf703;" 
d="M-304 675q-5 10 -5 22q0 26 17 44q18 18 48 18q31 0 49 -18q19 -18 19 -47t-19 -47q-20 -18 -50 -18h-321v46h262zM-244 663q31 0 31 31t-31 31t-31 -31t31 -31z" />
    <glyph glyph-name="uni0E37.alt1" unicode="&#xf704;" 
d="M-197 629h-369v46h226v70h47v-70h47v70h49v-116z" />
    <glyph glyph-name="uni0E48.alt1" unicode="&#xf705;" 
d="M-225 629h-57v149h57v-149z" />
    <glyph glyph-name="uni0E49.alt1" unicode="&#xf706;" 
d="M-159 629h-255v48q0 23 -21 23h-45v46h63q54 0 54 -55v-20h204v-42z" />
    <glyph glyph-name="uni0E4A.alt1" unicode="&#xf707;" 
d="M-65 629h-158v31q0 35 -26 44l-82 -75l-83 75q-26 -8 -26 -45v-30h-51v39q0 75 87 79l73 -68l73 68q83 -4 83 -76h110v-42z" />
    <glyph glyph-name="uni0E4B.alt1" unicode="&#xf708;" 
d="M-184 683h-70v-59h-53v59h-70v38h70v59h53v-59h70v-38z" />
    <glyph glyph-name="uni0E4C.alt1" unicode="&#xf709;" 
d="M-171 686h-102q-34 0 -34 -31v-26h-54v34q0 67 69 67h121v-44z" />
    <glyph glyph-name="uni0E48.alt2" unicode="&#xf70a;" 
d="M-57 629h-57v149h57v-149z" />
    <glyph glyph-name="uni0E49.alt2" unicode="&#xf70b;" 
d="M-8 629h-267v48q0 23 -21 23h-45v46h63q54 0 54 -55v-20h216v-42z" />
    <glyph glyph-name="uni0E4A.alt2" unicode="&#xf70c;" 
d="M11 629h-172v31q0 35 -26 44l-82 -75l-83 75q-26 -8 -26 -45v-30h-51v39q0 75 87 79l73 -68l73 68q83 -4 83 -76h124v-42z" />
    <glyph glyph-name="uni0E4B.alt2" unicode="&#xf70d;" 
d="M-47 683h-70v-59h-53v59h-70v38h70v59h53v-59h70v-38z" />
    <glyph glyph-name="uni0E4C.alt2" unicode="&#xf70e;" 
d="M13 686h-158q-34 0 -34 -31v-26h-54v34q0 67 69 67h177v-44z" />
    <glyph glyph-name="uni0E0D.alt1" unicode="&#xf70f;" horiz-adv-x="856" 
d="M795 169q0 -179 -189 -179q-190 0 -190 179v203q0 133 -152 133q-119 0 -153 -92l83 -47v-24q-59 -17 -59 -84v-156q0 -56 55 -56h48v-46h-67q-97 0 -97 95v164q0 75 57 96l-82 48q16 68 75 108q58 39 142 39q102 0 156 -45q55 -46 55 -131v-203q0 -136 128 -136
q129 0 129 136v369h61v-371z" />
    <glyph glyph-name="uni0E31.alt1" unicode="&#xf710;" 
d="M-18 629h-348q-60 0 -60 59v49h55v-37q0 -25 25 -25h328v-46z" />
    <glyph glyph-name="uni0E4D.alt1" unicode="&#xf711;" 
d="M-208 683q0 -37 -26 -62q-26 -23 -64 -23q-37 0 -62 23q-26 25 -26 62t26 62q25 23 62 23q38 0 64 -23q26 -25 26 -62zM-248 683q0 20 -14 34t-36 14q-21 0 -35 -14t-14 -34t14 -34t35 -14q22 0 36 14t14 34z" />
    <glyph glyph-name="uni0E47.alt1" unicode="&#xf712;" 
d="M-181 624l-107 46l-93 -46q-46 0 -74 26q-26 24 -26 63q0 41 30 65t80 24h238v-40h-232q-68 0 -68 -49q0 -47 45 -49l100 47l107 -42v-45z" />
    <glyph glyph-name="uni0E48.alt3" unicode="&#xf713;" 
d="M-198 805h-56v112h56v-112z" />
    <glyph glyph-name="uni0E49.alt3" unicode="&#xf714;" 
d="M-104 805h-229v36q0 21 -5 27q-5 5 -23 5h-21v37h49q50 0 50 -48v-20h179v-37z" />
    <glyph glyph-name="uni0E4A.alt3" unicode="&#xf715;" 
d="M-53 805h-134v21q0 39 -25 49l-64 -62l-64 62q-25 -10 -25 -49v-21h-45v35q0 70 80 74l54 -56l55 56q74 -5 78 -75h90v-34z" />
    <glyph glyph-name="uni0E4B.alt3" unicode="&#xf716;" 
d="M-137 855h-63v-50h-51v50h-64v33h64v50h51v-50h63v-33z" />
    <glyph glyph-name="uni0E4C.alt3" unicode="&#xf717;" 
d="M-186 799h-89q-32 0 -32 -29v-24h-53v29q0 62 67 62h107v-38z" />
    <glyph glyph-name="uni0E38.alt1" unicode="&#xf718;" 
d="M-57 -363h-60v109q0 24 -28 24h-40v45h58q70 0 70 -54v-124z" />
    <glyph glyph-name="uni0E39.alt1" unicode="&#xf719;" 
d="M-57 -281q0 -86 -109 -86q-106 0 -106 81v35q0 22 -18 22h-33v44h52q51 0 51 -42v-54q0 -45 54 -45q55 0 55 45v96h54v-96z" />
    <glyph glyph-name="uni0E3A.alt1" unicode="&#xf71a;" 
d="M-47 -217q0 -41 -42 -41q-41 0 -41 41t41 41q42 0 42 -41z" />
    <glyph glyph-name="uni0E0E.alt1" unicode="&#xf71b;" horiz-adv-x="568" 
d="M507 -130h-60q-92 67 -152 67q-65 0 -76 -67h-52q17 110 123 110q74 0 155 -59v447q0 133 -159 133q-133 0 -163 -88l86 -47v-24q-48 -14 -48 -78v-183q0 -81 -86 -81h-50v46h29q45 0 45 44v171q0 75 47 94l-85 48q15 67 79 108q62 39 147 39q102 0 161 -46t59 -131v-503
z" />
    <glyph glyph-name="uni0E0F.alt1" unicode="&#xf71c;" horiz-adv-x="568" 
d="M507 -140h-62l-119 55q-28 -60 -101 -60q-59 0 -99 37l21 37q30 -32 78 -32q65 0 81 74l139 -63v460q0 133 -159 133q-133 0 -163 -88l86 -47v-24q-48 -14 -48 -78v-183q0 -81 -86 -81h-50v46h29q45 0 45 44v171q0 75 47 94l-85 48q15 67 79 108q62 39 147 39
q102 0 161 -46t59 -131v-513z" />
    <glyph glyph-name="uni0E2C.alt1" unicode="&#xf71d;" horiz-adv-x="653" 
d="M526 0h-67l-128 318l-128 -318h-67l-87 540h59l73 -473l125 311h50l125 -311l41 297q1 4 1 12q0 54 -76 62v29l99 101h65l-105 -108q71 -13 71 -84q0 -9 -1 -14z" />
    <glyph glyph-name="KTR" horiz-adv-x="740" 
d="M685 326q0 -179 -158 -283q-79 -52 -158 -68q-78 16 -157 68q-157 104 -157 283v261q0 114 116 114h397q117 0 117 -114v-261zM546 167v224q0 84 -58 141q-58 58 -144 58t-144 -58q-57 -57 -57 -141h88q0 52 31 84q31 31 82 31q52 0 82 -31q31 -31 31 -84v-224h89z
M319 167v224h-88v-224h88z" />
    <glyph glyph-name="sfthyphen" unicode="&#xad;" horiz-adv-x="327" 
d="M277 224h-227v50h227v-50z" />
    <glyph glyph-name="nonbreakingspace" unicode="&#xa0;" horiz-adv-x="240" 
 />
    <glyph glyph-name="uni03BC" unicode="&#x3bc;" horiz-adv-x="489" 
d="M487 4q-36 -13 -61 -13q-40 0 -48 69q-54 -69 -141 -69q-81 0 -114 55v-237h-61v653h61v-309q0 -55 32 -86q33 -32 89 -32q85 0 133 75v352h61v-393q0 -30 22 -30q11 0 27 8v-43z" />
    <glyph glyph-name="pi" unicode="&#x3c0;" horiz-adv-x="549" 
d="M520 5q-30 -13 -62 -13q-76 0 -76 58v342h-218v-392h-62v392h-85v45h510v-45h-83v-340q0 -15 20 -15q19 0 56 15v-47z" />
    <glyph glyph-name="nonmarkingreturn" 
 />
    </font>
</defs>
</svg>
