<?xml version="1.0" standalone="no"?>
<!DOCTYPE svg PUBLIC "-//W3C//DTD SVG 1.1//EN" "http://www.w3.org/Graphics/SVG/1.1/DTD/svg11.dtd" >
<svg>
<metadata>
Created by FontForge 20090622 at Thu Aug 15 10:54:10 2019
 By deploy user
Copyright (c) 2014 by Katatrad Aksorn Co.,Ltd.. All rights reserved. This font is an exclusive license to True Digital Content &#38; Media Company Limited
</metadata>
<defs>
<font id="Anuyart-DemiBold" horiz-adv-x="0" >
  <font-face 
    font-family="Anuyart DemiBold"
    font-weight="450"
    font-stretch="normal"
    units-per-em="1000"
    panose-1="2 11 5 0 4 2 0 2 0 3"
    ascent="750"
    descent="-250"
    x-height="461"
    cap-height="650"
    bbox="-611 -393 1321 973"
    underline-thickness="30"
    underline-position="-20"
    unicode-range="U+000D-U+FB02"
  />
<missing-glyph horiz-adv-x="806" 
d="M747 0h-683v944h683v-944zM722 25v892h-633v-892h633z" />
    <glyph glyph-name="fi" unicode="fi" horiz-adv-x="613" 
d="M553 0h-124v390h-211v-390h-124v390h-68v71h68v41q0 156 151 156q60 0 111 -26l-25 -73q-24 16 -54 16q-59 0 -59 -65v-49h335v-461zM556 554h-130v96h130v-96z" />
    <glyph glyph-name="fl" unicode="fl" horiz-adv-x="606" 
d="M548 0h-124v560q-18 -10 -45 -10q-21 0 -56 13q-36 12 -53 12q-52 0 -52 -65v-49h117v-71h-117v-390h-124v390h-68v71h68v41q0 156 164 156q32 0 74 -16q42 -17 70 -17q41 0 146 28v-653z" />
    <glyph glyph-name="uni0E5A" unicode="&#xe2f;&#xe2f;" horiz-adv-x="750" 
d="M697 0h-124v324q-39 -41 -101 -52v-272h-124v324q-51 -54 -139 -54q-73 0 -118 40q-47 42 -47 117v113h124v-110q0 -80 79 -80q64 0 101 67v123h124v-191q65 3 101 68v123h124v-540z" />
    <glyph glyph-name="uni0E4F.liga" unicode="&#xe4f;&#x22;" horiz-adv-x="578" 
d="M520 218q0 -100 -66 -163q-64 -62 -162 -62t-162 62q-66 63 -66 163t66 163q64 62 162 62t162 -62q66 -63 66 -163zM478 218q0 81 -54 133q-52 51 -132 51t-133 -51t-53 -133t53 -133t133 -51t132 51q54 52 54 133zM420 218q0 -57 -37 -92q-35 -35 -91 -35t-92 35t-36 92
t36 92t92 35t91 -35q37 -35 37 -92zM381 218q0 41 -25 65q-24 24 -64 24t-65 -24t-25 -65t25 -65t65 -24t64 24q25 24 25 65zM233 481h-43l-17 192h76zM393 481h-43l-17 192h76z" />
    <glyph glyph-name="uni0E24.liga" unicode="&#xe24;&#xe32;" horiz-adv-x="884" 
d="M831 -182h-123v557q0 92 -89 92q-52 0 -95 -27q17 -34 17 -78v-544h-124v541q0 108 -123 108q-102 0 -133 -67l80 -45v-34q-55 -17 -55 -90v-104q0 -44 43 -44h44v-83h-103q-49 0 -77 27q-30 28 -30 78v132q0 80 57 104l-83 53q18 71 91 114q71 42 164 42q110 0 178 -47
q67 47 172 47q189 0 189 -179v-553z" />
    <glyph glyph-name="uni0E26.liga" unicode="&#xe26;&#xe32;" horiz-adv-x="888" 
d="M835 -182h-123v557q0 92 -89 92q-46 0 -91 -25q18 -38 18 -80v-544h-124v541q0 108 -123 108q-102 0 -133 -67l82 -45v-34q-40 -15 -40 -72v-149q0 -100 -98 -100h-92v83h31q35 0 35 42v118q0 74 43 98l-85 53q18 71 91 114q71 42 164 42q109 0 175 -45q68 45 170 45
q189 0 189 -179v-553z" />
    <glyph glyph-name=".notdef" horiz-adv-x="806" 
d="M747 0h-683v944h683v-944zM722 25v892h-633v-892h633z" />
    <glyph glyph-name="space" unicode=" " horiz-adv-x="270" 
 />
    <glyph glyph-name="exclam" unicode="!" horiz-adv-x="278" 
d="M200 0h-127v112h127v-112zM183 192h-94l-19 199v259h133v-259z" />
    <glyph glyph-name="quotedbl" unicode="&#x22;" horiz-adv-x="380" 
d="M138 437h-65l-21 238h106zM307 437h-65l-20 238h106z" />
    <glyph glyph-name="numbersign" unicode="#" horiz-adv-x="756" 
d="M494 0h-113l45 181h-164l-45 -181h-114l44 181h-97v70h116l38 155h-107v70h124l43 174h113l-42 -174h163l43 174h115l-43 -174h93v-70h-111l-38 -155h102v-70h-120zM444 251l37 156h-164l-38 -156h165z" />
    <glyph glyph-name="dollar" unicode="$" horiz-adv-x="545" 
d="M334 -77h-108v71q-112 7 -183 62l46 85q75 -53 172 -53q127 0 127 77q0 43 -45 75q-26 18 -104 51q-93 40 -130 74q-51 47 -51 120q0 141 168 168v75h108v-71q99 -9 164 -61l-48 -80q-66 46 -140 46q-123 0 -123 -76q0 -37 42 -65q37 -24 141 -63q146 -54 147 -184
q0 -71 -48 -119q-49 -49 -135 -61v-71z" />
    <glyph glyph-name="percent" unicode="%" horiz-adv-x="949" 
d="M363 0h-113l342 651h112zM296 456q0 126 -82 126t-82 -126t82 -126t82 126zM394 456q0 -97 -49 -149q-47 -50 -131 -50t-131 50q-49 52 -49 149q0 96 49 148q47 50 131 50t131 -50q49 -52 49 -148zM817 188q0 127 -82 127t-82 -127q0 -126 82 -126t82 126zM915 188
q0 -96 -49 -148q-47 -50 -131 -50t-131 50q-49 52 -49 148q0 97 49 149q47 50 131 50t131 -50q49 -52 49 -149z" />
    <glyph glyph-name="ampersand" unicode="&#x26;" horiz-adv-x="707" 
d="M668 47l-83 -56l-76 70q-88 -74 -232 -74q-88 0 -150 41q-74 48 -74 136q0 124 134 197q-88 79 -88 152q0 147 197 147q201 0 201 -138q0 -100 -140 -166l158 -161q18 61 18 143h102q0 -123 -56 -208zM260 305q-78 -57 -78 -120q0 -48 34 -76t91 -28q71 0 131 48z
M224 517q0 -54 77 -120q71 52 71 112q0 83 -75 83q-73 0 -73 -75z" />
    <glyph glyph-name="quotesingle" unicode="'" horiz-adv-x="212" 
d="M139 437h-65l-21 238h106z" />
    <glyph glyph-name="parenleft" unicode="(" horiz-adv-x="398" 
d="M200 -53q-136 173 -136 362t136 362h142q-145 -171 -145 -362t145 -362h-142z" />
    <glyph glyph-name="parenright" unicode=")" horiz-adv-x="398" 
d="M56 -53q145 171 145 362t-145 362h142q136 -173 136 -362t-136 -362h-142z" />
    <glyph glyph-name="asterisk" unicode="*" horiz-adv-x="586" 
d="M452 308l-81 -47l-79 144l-81 -145l-81 47l125 132l-191 34l36 90l166 -75l-22 172h94l-19 -171l163 75l38 -90l-193 -33z" />
    <glyph glyph-name="plus" unicode="+" horiz-adv-x="572" 
d="M344 46h-116v191h-187v89h187v190h116v-190h187v-89h-187v-191z" />
    <glyph glyph-name="comma" unicode="," horiz-adv-x="246" 
d="M96 -150h-84l67 273h130z" />
    <glyph glyph-name="hyphen" unicode="-" horiz-adv-x="411" 
d="M349 207h-287v89h287v-89z" />
    <glyph glyph-name="period" unicode="." horiz-adv-x="246" 
d="M189 0h-132v136h132v-136z" />
    <glyph glyph-name="slash" unicode="/" horiz-adv-x="358" 
d="M103 -70h-118l267 762h121z" />
    <glyph glyph-name="zero" unicode="0" horiz-adv-x="572" 
d="M544 324q0 -336 -258 -336t-258 336t258 336t258 -336zM286 90q125 0 125 234t-125 234t-125 -234t125 -234z" />
    <glyph glyph-name="one" unicode="1" horiz-adv-x="572" 
d="M522 0h-427v96h152v438l-127 -79l-40 87l182 118h116v-564h144v-96z" />
    <glyph glyph-name="two" unicode="2" horiz-adv-x="572" 
d="M513 0h-453v90q0 103 160 215q87 61 110 83q50 47 50 94q0 76 -111 76q-95 0 -170 -46l-35 89q89 59 221 59q232 0 232 -186q0 -105 -161 -220l-112 -80q-50 -43 -50 -78h319v-96z" />
    <glyph glyph-name="three" unicode="3" horiz-adv-x="572" 
d="M398 346q119 -30 119 -164q0 -92 -69 -145q-64 -49 -163 -49q-140 0 -229 58l35 89q76 -45 178 -45q60 0 91 34q25 29 25 70q0 106 -132 106h-77v91h102q50 0 76 26q24 22 24 58q0 83 -107 83q-102 0 -180 -46l-35 89q87 59 228 59q96 0 155 -39q68 -45 68 -128
q0 -54 -29 -93q-29 -40 -80 -51v-3z" />
    <glyph glyph-name="four" unicode="4" horiz-adv-x="572" 
d="M470 0h-132v139h-304v104l293 417h143v-423h76v-98h-76v-139zM338 237v279l-189 -279h189z" />
    <glyph glyph-name="five" unicode="5" horiz-adv-x="572" 
d="M87 135q73 -43 166 -43q59 0 93 33q33 31 33 82q0 57 -48 87q-42 27 -114 27q-91 0 -141 -9l25 338h381v-96h-261l-10 -141q35 5 62 5q102 0 166 -49q73 -56 73 -163q0 -106 -75 -166q-67 -52 -168 -52q-128 0 -217 58z" />
    <glyph glyph-name="six" unicode="6" horiz-adv-x="572" 
d="M467 520q-59 37 -144 37q-71 0 -112 -52q-43 -53 -44 -146q43 75 145 75q99 0 157 -55q60 -56 60 -155q0 -103 -61 -168q-63 -68 -170 -68q-117 0 -182 72q-72 79 -72 237q0 172 67 265q70 98 208 98q116 0 189 -60zM291 84q49 0 81 38t32 98q0 59 -32 94q-31 34 -81 34
q-49 0 -81 -35q-33 -36 -33 -94q0 -60 32 -97q32 -38 82 -38z" />
    <glyph glyph-name="seven" unicode="7" horiz-adv-x="572" 
d="M226 0h-145l294 554h-320v96h466v-91z" />
    <glyph glyph-name="eight" unicode="8" horiz-adv-x="572" 
d="M402 342q139 -49 139 -162q0 -91 -67 -142q-67 -50 -184 -50t-184 50q-67 51 -67 142q0 117 133 169v2q-46 14 -78 51q-36 41 -36 89q0 79 61 124t171 45t171 -45t61 -124q0 -48 -37 -91q-35 -41 -83 -56v-2zM412 181q0 82 -157 125q-87 -39 -87 -125q0 -47 34 -77
t89 -30q54 0 88 30q33 30 33 77zM186 490q0 -77 132 -110q76 45 76 107q0 40 -30 63q-28 23 -73 23t-75 -23q-30 -24 -30 -60z" />
    <glyph glyph-name="nine" unicode="9" horiz-adv-x="572" 
d="M117 130q60 -40 142 -40q70 0 110 58q37 55 37 145q-45 -75 -144 -75q-100 0 -158 55q-59 55 -59 154q0 103 61 167q63 66 170 66q254 0 254 -307q0 -365 -266 -365q-117 0 -188 62zM283 306q49 0 81 34q33 36 33 93q0 60 -33 99q-32 38 -81 38q-48 0 -80 -38
q-33 -39 -33 -99q0 -58 32 -93q31 -34 81 -34z" />
    <glyph glyph-name="colon" unicode=":" horiz-adv-x="252" 
d="M188 0h-124v124h124v-124zM188 341h-124v124h124v-124z" />
    <glyph glyph-name="semicolon" unicode=";" horiz-adv-x="252" 
d="M88 -169h-80l70 286h126zM188 341h-124v124h124v-124z" />
    <glyph glyph-name="less" unicode="&#x3c;" horiz-adv-x="572" 
d="M490 26l-408 203v78l408 202v-97l-286 -144l286 -145v-97z" />
    <glyph glyph-name="equal" unicode="=" horiz-adv-x="572" 
d="M492 309h-412v90h412v-90zM492 111h-412v90h412v-90z" />
    <glyph glyph-name="greater" unicode="&#x3e;" horiz-adv-x="572" 
d="M490 229l-408 -203v97l286 145l-286 144v97l408 -202v-78z" />
    <glyph glyph-name="question" unicode="?" horiz-adv-x="518" 
d="M273 169h-106v57q0 76 87 146q87 69 87 115q0 76 -109 76q-91 0 -156 -45l-38 76q83 67 225 67q90 0 146 -36q64 -41 64 -120q0 -92 -100 -163q-55 -39 -69 -53q-31 -32 -31 -72v-48zM283 0h-127v112h127v-112z" />
    <glyph glyph-name="at" unicode="@" horiz-adv-x="860" 
d="M589 -159q-76 -17 -171 -17q-157 0 -254 107q-98 109 -98 287q0 168 105 276q105 107 271 107q170 0 269 -103q97 -102 97 -273q0 -119 -67 -225h-167l-39 52q-41 -58 -135 -58q-68 0 -111 60q-44 59 -44 153q0 219 195 219q69 0 151 -38v-297l34 -43h57q52 60 52 176
q0 143 -79 227q-78 83 -214 83q-132 0 -216 -89q-84 -90 -84 -228q0 -147 79 -236q78 -88 207 -88q92 0 162 21v-73zM515 344q-42 15 -87 15q-102 0 -102 -147q0 -153 95 -153q42 0 94 50v235z" />
    <glyph glyph-name="A" unicode="A" horiz-adv-x="673" 
d="M430 238l-95 303l-95 -303h190zM640 0h-138l-47 142h-240l-46 -142h-136l221 650h165z" />
    <glyph glyph-name="B" unicode="B" horiz-adv-x="587" 
d="M417 335q127 -26 127 -151q0 -184 -223 -184h-263v650h253q101 0 156 -42q55 -43 55 -120q0 -112 -105 -150v-3zM297 93q60 0 87 20q30 22 30 75q0 94 -128 94h-96v-189h107zM284 375q109 0 109 93q0 87 -103 87h-100v-180h94z" />
    <glyph glyph-name="C" unicode="C" horiz-adv-x="610" 
d="M567 47q-79 -59 -212 -59q-144 0 -229 92q-83 91 -83 244q0 152 84 244q85 92 226 92q127 0 205 -55l-50 -83q-56 40 -139 40q-84 0 -140 -65q-57 -66 -57 -173t56 -172q55 -64 145 -64q88 0 149 45z" />
    <glyph glyph-name="D" unicode="D" horiz-adv-x="611" 
d="M58 0v650h219q297 0 297 -324q0 -326 -297 -326h-219zM273 96q95 0 135 56q36 52 36 173q0 120 -36 172q-40 57 -136 57h-82v-458h83z" />
    <glyph glyph-name="E" unicode="E" horiz-adv-x="521" 
d="M481 0h-423v650h423v-96h-291v-180h228v-96h-228v-183h291v-95z" />
    <glyph glyph-name="F" unicode="F" horiz-adv-x="504" 
d="M190 0h-132v650h423v-96h-291v-180h228v-96h-228v-278z" />
    <glyph glyph-name="G" unicode="G" horiz-adv-x="631" 
d="M585 49q-82 -61 -227 -61q-148 0 -232 92q-83 90 -83 244q0 152 86 244q85 92 227 92q131 0 209 -55l-50 -83q-60 40 -143 40q-85 0 -141 -65q-59 -67 -59 -173q0 -107 56 -172q55 -64 144 -64q60 0 97 25v153h-139v95h255v-312z" />
    <glyph glyph-name="H" unicode="H" horiz-adv-x="640" 
d="M582 0h-132v275h-260v-275h-132v650h132v-279h260v279h132v-650z" />
    <glyph glyph-name="I" unicode="I" horiz-adv-x="248" 
d="M190 0h-132v650h132v-650z" />
    <glyph glyph-name="J" unicode="J" horiz-adv-x="468" 
d="M415 205q0 -217 -214 -217q-111 0 -190 63l49 79q51 -42 116 -42q58 0 84 27q23 26 23 82v453h132v-445z" />
    <glyph glyph-name="K" unicode="K" horiz-adv-x="611" 
d="M190 0h-132v650h132v-650zM594 0h-156l-248 341l235 309h156l-242 -309z" />
    <glyph glyph-name="L" unicode="L" horiz-adv-x="504" 
d="M481 0h-423v650h132v-555h291v-95z" />
    <glyph glyph-name="M" unicode="M" horiz-adv-x="733" 
d="M675 0h-130v405l-154 -339h-49l-154 339v-405h-130v650h126l181 -412l184 412h126v-650z" />
    <glyph glyph-name="N" unicode="N" horiz-adv-x="638" 
d="M580 0h-122l-269 447v-447h-131v650h126l265 -452v452h131v-650z" />
    <glyph glyph-name="O" unicode="O" horiz-adv-x="680" 
d="M340 88q167 0 167 237t-167 237t-167 -237t167 -237zM558 77q-79 -89 -218 -89t-218 89t-79 248q0 158 79 247q79 88 218 88t218 -88q79 -89 79 -247t-79 -248z" />
    <glyph glyph-name="P" unicode="P" horiz-adv-x="564" 
d="M274 299q132 0 132 129q0 126 -133 126h-83v-255h84zM190 0h-132v650h227q250 0 250 -222q0 -224 -250 -224h-95v-204z" />
    <glyph glyph-name="Q" unicode="Q" horiz-adv-x="686" 
d="M587 -103q-165 28 -245 93q-138 -1 -218 88q-81 89 -81 247t79 247q79 88 218 88t218 -88q79 -89 79 -247q0 -237 -176 -304l126 -23v-101zM340 88q167 0 167 237t-167 237t-167 -237t167 -237z" />
    <glyph glyph-name="R" unicode="R" horiz-adv-x="593" 
d="M560 0h-133l-48 150q-15 46 -32 62q-22 20 -71 20h-83v-232h-132v650h237q239 0 239 -204q0 -133 -111 -178q52 -19 77 -95zM287 330q121 0 121 116q0 108 -122 108h-93v-224h94z" />
    <glyph glyph-name="S" unicode="S" horiz-adv-x="556" 
d="M515 174q0 -90 -72 -140q-66 -46 -173 -46q-139 0 -229 68l46 85q81 -53 172 -53q125 0 125 82q0 40 -38 68q-23 17 -90 45q-74 30 -131 71q-69 51 -69 131t62 128q62 47 169 47q125 0 209 -64l-47 -80q-78 46 -156 46q-107 0 -107 -76q0 -38 56.5 -66t108.5 -51
q164 -73 164 -195z" />
    <glyph glyph-name="T" unicode="T" horiz-adv-x="529" 
d="M331 0h-133v554h-187v96h507v-96h-187v-554z" />
    <glyph glyph-name="U" unicode="U" horiz-adv-x="630" 
d="M577 217q0 -111 -71 -171q-69 -58 -191 -58t-191 58q-71 60 -71 171v433h132v-437q0 -125 130 -125t130 125v437h132v-433z" />
    <glyph glyph-name="V" unicode="V" horiz-adv-x="673" 
d="M422 0h-171l-218 650h136l166 -539l167 539h138z" />
    <glyph glyph-name="W" unicode="W" horiz-adv-x="839" 
d="M662 0h-128l-115 477l-113 -477h-128l-145 650h133l93 -487l110 464h104l107 -464l97 487h129z" />
    <glyph glyph-name="X" unicode="X" horiz-adv-x="647" 
d="M616 0h-145l-149 237l-151 -237h-140l221 329l-210 321h144l140 -230l141 230h141l-211 -318z" />
    <glyph glyph-name="Y" unicode="Y" horiz-adv-x="637" 
d="M384 0h-132v227l-221 423h136l151 -315l151 315h137l-222 -423v-227z" />
    <glyph glyph-name="Z" unicode="Z" horiz-adv-x="570" 
d="M533 0h-496v83l333 471h-313v96h465v-87l-331 -468h342v-95z" />
    <glyph glyph-name="bracketleft" unicode="[" horiz-adv-x="371" 
d="M324 -130h-256v880h256v-96h-124v-690h124v-94z" />
    <glyph glyph-name="backslash" unicode="\" horiz-adv-x="342" 
d="M365 -70h-119l-269 762h120z" />
    <glyph glyph-name="bracketright" unicode="]" horiz-adv-x="371" 
d="M305 -130h-256v94h124v690h-124v96h256v-880z" />
    <glyph glyph-name="asciicircum" unicode="^" horiz-adv-x="649" 
d="M577 312h-113l-140 236l-140 -236h-113l217 345h72z" />
    <glyph glyph-name="underscore" unicode="_" horiz-adv-x="433" 
d="M433 -155h-433v94h433v-94z" />
    <glyph glyph-name="grave" unicode="`" horiz-adv-x="437" 
d="M315 518h-100l-108 147h130z" />
    <glyph glyph-name="a" unicode="a" horiz-adv-x="513" 
d="M460 0h-112l-12 54q-50 -66 -152 -66q-62 0 -104 36q-43 36 -43 95q0 96 91 136q70 30 208 30q0 50 -16 72q-22 32 -85 32q-66 0 -126 -41l-40 70q80 54 193 54q198 0 198 -187v-285zM336 221q-95 0 -135 -20q-41 -21 -41 -70q0 -69 78 -69q98 0 98 95v64z" />
    <glyph glyph-name="b" unicode="b" horiz-adv-x="563" 
d="M171 0h-113v650h124v-231q52 53 140 53q94 0 148 -60q56 -62 56 -173q0 -107 -52 -175q-57 -74 -157 -74q-92 0 -138 64zM182 139q27 -66 98 -66q120 0 120 165q0 151 -116 151q-72 0 -102 -58v-192z" />
    <glyph glyph-name="c" unicode="c" horiz-adv-x="497" 
d="M457 34q-59 -44 -160 -44q-116 0 -184 63q-70 65 -70 178q0 114 69 178q67 63 183 63q96 0 154 -43l-34 -73q-40 33 -109 33q-62 0 -100 -41q-40 -43 -40 -117t40 -117q39 -41 103 -41q76 0 115 33z" />
    <glyph glyph-name="d" unicode="d" horiz-adv-x="563" 
d="M505 0h-113l-8 54q-48 -64 -138 -64q-102 0 -157 70q-52 64 -52 170q0 112 56 178q55 64 148 64t140 -53v231h124v-650zM381 331q-30 58 -103 58q-115 0 -115 -160q0 -156 119 -156q71 0 99 66v192z" />
    <glyph glyph-name="e" unicode="e" horiz-adv-x="532" 
d="M388 280q-1 49 -30 79q-30 30 -80 30q-108 0 -120 -109h230zM470 37q-74 -47 -171 -47q-119 0 -187 63q-69 65 -69 179q0 113 63 177q62 63 168 63q215 0 215 -263h-332q4 -136 155 -136q69 0 123 38z" />
    <glyph glyph-name="f" unicode="f" horiz-adv-x="366" 
d="M218 0h-124v390h-68v71h68v41q0 156 151 156q60 0 111 -26l-25 -73q-24 16 -54 16q-59 0 -59 -65v-49h117v-71h-117v-390z" />
    <glyph glyph-name="g" unicode="g" horiz-adv-x="563" 
d="M505 21q0 -218 -234 -218q-108 0 -176 45l33 72q58 -34 126 -34q127 0 127 119v34q-48 -49 -140 -49t-148 64q-56 65 -56 176q0 109 53 173q56 69 158 69q91 0 136 -62l8 51h113v-440zM381 324q-27 65 -99 65q-119 0 -119 -158t115 -158q75 0 103 57v194z" />
    <glyph glyph-name="h" unicode="h" horiz-adv-x="547" 
d="M507 0h-124v302q0 87 -87 87q-72 0 -114 -59v-330h-124v650h124v-238q65 60 165 60q76 0 118 -41t42 -116v-315z" />
    <glyph glyph-name="i" unicode="i" horiz-adv-x="247" 
d="M187 0h-124v461h124v-461zM190 554h-130v96h130v-96z" />
    <glyph glyph-name="j" unicode="j" horiz-adv-x="310" 
d="M250 -11q0 -173 -170 -173q-83 0 -142 43l35 71q37 -28 84 -28q70 0 70 88v471h123v-472zM254 554h-130v96h130v-96z" />
    <glyph glyph-name="k" unicode="k" horiz-adv-x="530" 
d="M182 0h-124v650h124v-650zM533 0h-142l-209 244l190 217h143l-190 -217z" />
    <glyph glyph-name="l" unicode="l" horiz-adv-x="240" 
d="M182 0h-124v650h124v-650z" />
    <glyph glyph-name="m" unicode="m" horiz-adv-x="790" 
d="M737 0h-120v302q0 87 -75 87q-58 0 -88 -49q4 -25 4 -58v-282h-112v298q0 91 -71 91q-56 0 -97 -55v-334h-120v461h107l10 -48q55 59 131 59q87 0 123 -59q56 59 147 59t130 -51q31 -42 31 -128v-293z" />
    <glyph glyph-name="n" unicode="n" horiz-adv-x="560" 
d="M507 0h-124v302q0 87 -87 87q-72 0 -114 -59v-330h-124v461h112l10 -49q65 60 167 60q76 0 118 -41t42 -116v-315z" />
    <glyph glyph-name="o" unicode="o" horiz-adv-x="556" 
d="M278 73q118 0 118 158t-118 158q-117 0 -117 -158t117 -158zM459 54q-64 -64 -181 -64t-180 64q-63 63 -63 177t63 177q63 64 180 64t181 -64q62 -63 62 -177t-62 -177z" />
    <glyph glyph-name="p" unicode="p" horiz-adv-x="563" 
d="M182 -188h-124v649h113l8 -53q48 64 140 64q101 0 156 -68q51 -63 51 -172q0 -111 -57 -177q-56 -65 -149 -65q-90 0 -138 51v-229zM182 131q30 -58 101 -58q117 0 117 161q0 155 -119 155q-72 0 -99 -66v-192z" />
    <glyph glyph-name="q" unicode="q" horiz-adv-x="563" 
d="M505 -188h-124v229q-48 -51 -139 -51q-93 0 -149 64q-56 65 -56 176q0 109 52 173q56 69 158 69q90 0 137 -64l8 53h113v-649zM381 323q-27 66 -99 66q-119 0 -119 -158t116 -158q72 0 102 58v192z" />
    <glyph glyph-name="r" unicode="r" horiz-adv-x="361" 
d="M182 0h-124v461h111l9 -59q61 70 170 70v-90q-110 0 -166 -63v-319z" />
    <glyph glyph-name="s" unicode="s" horiz-adv-x="462" 
d="M418 131q0 -141 -209 -141q-97 0 -168 52l35 70q53 -39 132 -39q90 0 90 55q0 26 -38 46l-84 33q-123 49 -123 140q0 62 53 95q47 30 125 30q106 0 173 -46l-36 -69q-60 32 -122 32q-72 0 -72 -46q0 -22 36 -36.5l86 -35.5q122 -49 122 -140z" />
    <glyph glyph-name="t" unicode="t" horiz-adv-x="383" 
d="M371 22q-54 -32 -126 -32q-158 0 -158 163v237h-61v71h62l22 129h101v-129h139v-71h-139v-244q0 -73 67 -73q37 0 67 22z" />
    <glyph glyph-name="u" unicode="u" horiz-adv-x="560" 
d="M502 0h-113l-9 50q-60 -60 -155 -60q-78 0 -125 44t-47 122v305h124v-299q0 -89 98 -89q68 0 103 59v329h124v-461z" />
    <glyph glyph-name="v" unicode="v" horiz-adv-x="515" 
d="M312 0h-108l-194 461h128l120 -328l119 328h128z" />
    <glyph glyph-name="w" unicode="w" horiz-adv-x="682" 
d="M541 0h-103l-97 318l-97 -318h-103l-131 461h117l73 -320l94 307h94l94 -307l73 320h117z" />
    <glyph glyph-name="x" unicode="x" horiz-adv-x="515" 
d="M495 0h-128l-109 161l-113 -161h-125l167 230l-164 231h129l107 -161l108 161h127l-164 -228z" />
    <glyph glyph-name="y" unicode="y" horiz-adv-x="561" 
d="M255 -176h-118l80 189l-186 449h120l126 -347l131 347h120z" />
    <glyph glyph-name="z" unicode="z" horiz-adv-x="469" 
d="M432 0h-395v68l244 322h-230v71h370v-60l-250 -330h261v-71z" />
    <glyph glyph-name="braceleft" unicode="{" horiz-adv-x="467" 
d="M63 271v94q65 2 100 29t35 80v112q0 93 52 138q43 37 159 37v-74q-74 0 -94 -21q-22 -23 -22 -79v-105q0 -135 -130 -164q130 -29 130 -164v-105q0 -56 22 -79q20 -21 94 -21v-74q-116 0 -159 37q-52 45 -52 138v112q0 53 -35 80t-100 29z" />
    <glyph glyph-name="bar" unicode="|" horiz-adv-x="285" 
d="M185 -161h-85v856h85v-856z" />
    <glyph glyph-name="braceright" unicode="}" horiz-adv-x="467" 
d="M404 271q-65 -2 -100 -29t-35 -80v-112q0 -93 -52 -138q-43 -37 -159 -37v74q74 0 94 21q22 23 22 79v105q0 135 130 164q-130 29 -130 164v105q0 56 -22 79q-20 21 -94 21v74q116 0 159 -37q52 -45 52 -138v-112q0 -53 35 -80t100 -29v-94z" />
    <glyph glyph-name="asciitilde" unicode="~" horiz-adv-x="685" 
d="M631 429q-1 -252 -162 -252q-61 0 -138 87q-78 86 -111 86q-86 0 -89 -174h-79q0 120 47 188q45 65 120 65t150 -86q74 -87 106 -87q74 0 81 173h75z" />
    <glyph glyph-name="exclamdown" unicode="&#xa1;" horiz-adv-x="278" 
d="M206 -188h-136l21 458h94zM204 350h-133v112h133v-112z" />
    <glyph glyph-name="cent" unicode="&#xa2;" horiz-adv-x="497" 
d="M352 -72h-105v66q-95 12 -149 74q-55 62 -55 163q0 102 55 164q53 62 149 74v64h105v-68q56 -7 97 -36l-34 -73q-40 33 -109 33q-62 0 -100 -41q-40 -43 -40 -117t40 -117q39 -41 103 -41q76 0 115 33l33 -72q-42 -31 -105 -39v-67z" />
    <glyph glyph-name="sterling" unicode="&#xa3;" horiz-adv-x="518" 
d="M452 21q-55 -31 -100 -31q-33 0 -98 16q-66 15 -101 15q-39 0 -75 -22l-32 76q95 63 95 159q0 18 -4 33h-80v73h59q-42 56 -42 114q0 79 55 127q54 47 141 47q91 0 143 -45q54 -47 58 -133h-96q-6 93 -93 93q-39 0 -63 -24q-25 -25 -25 -68q0 -47 40 -111h155v-73h-138
q3 -19 3 -38q0 -72 -56 -143q10 2 31 2q31 0 74 -8q43 -9 63 -9q38 0 86 29v-79z" />
    <glyph glyph-name="yen" unicode="&#xa5;" horiz-adv-x="617" 
d="M541 133h-167v-133h-132v133h-164v75h164v19l-47 89h-117v76h78l-135 258h136l151 -315l151 315h137l-136 -258h81v-76h-121l-46 -89v-19h167v-75z" />
    <glyph glyph-name="section" unicode="&#xa7;" horiz-adv-x="586" 
d="M99 -99q79 -54 179 -54q61 0 97 30q33 26 33 65q0 49 -53 82q-27 16 -118 51q-82 30 -118 59q-53 42 -53 107q0 87 76 134q-78 54 -78 123q0 75 64 119q64 43 172 43q124 0 210 -64l-45 -75q-80 47 -159 47q-112 0 -112 -76q0 -35 52 -64l114 -50q166 -73 166 -187
q0 -79 -55 -132q58 -38 58 -113q0 -91 -73 -143q-67 -48 -174 -48q-139 0 -228 66zM319 143q44 -18 69 -32q33 37 33 76q0 56 -60 90q-16 10 -125 51q-55 -31 -55 -75q0 -46 71 -81q15 -7 67 -29z" />
    <glyph glyph-name="dieresis" unicode="&#xa8;" horiz-adv-x="390" 
d="M143 518h-117v114h117v-114zM364 518h-118v114h118v-114z" />
    <glyph glyph-name="copyright" unicode="&#xa9;" horiz-adv-x="775" 
d="M539 255q-23 -118 -153 -118q-74 0 -121 48q-49 51 -49 135t49 135q47 48 121 48q130 0 153 -118h-61q-14 61 -92 61q-106 0 -106 -127q0 -125 106 -125q78 0 92 61h61zM707 322q0 -137 -92 -228q-92 -90 -229 -90q-141 0 -231 90t-90 228t90 228q91 90 231 90t231 -90
q90 -90 90 -228zM386 51q118 0 194 77q77 77 77 194t-75 194q-76 77 -196 77t-196 -77q-74 -76 -74 -194t74 -194q76 -77 196 -77z" />
    <glyph glyph-name="ordfeminine" unicode="&#xaa;" horiz-adv-x="350" 
d="M310 345h-78l-9 35q-33 -42 -100 -42q-40 0 -67 23q-28 24 -28 63q0 113 195 113q0 63 -59 63q-53 0 -86 -26l-29 51q52 35 125 35q136 0 136 -114v-201zM223 490q-58 0 -82 -12q-26 -14 -26 -46q0 -43 43 -43q65 0 65 63v38z" />
    <glyph glyph-name="guillemotleft" unicode="&#xab;" horiz-adv-x="460" 
d="M247 31h-109l-100 191l100 190h109l-96 -190zM422 31h-109l-99 191l99 190h109l-96 -190z" />
    <glyph glyph-name="logicalnot" unicode="&#xac;" horiz-adv-x="483" 
d="M451 106h-94v101h-325v75h419v-176z" />
    <glyph glyph-name="registered" unicode="&#xae;" horiz-adv-x="383" 
d="M273 398h-44l-13 44q-7 21 -30 21h-23v-65h-43v190h78q69 0 69 -60q0 -43 -34 -52q15 -4 23 -28zM194 495q31 0 31 32q0 29 -31 29h-31v-61h31zM324 490q0 60 -35 96q-37 38 -98 38q-60 0 -96 -38q-35 -36 -35 -96q0 -59 35 -95q36 -38 96 -38t97 38q36 37 36 95z
M353 490q0 -69 -43 -113q-45 -46 -119 -46q-73 0 -118 46q-43 44 -43 113t43 114q45 46 118 46q74 0 119 -46q43 -45 43 -114z" />
    <glyph glyph-name="macron" unicode="&#xaf;" horiz-adv-x="437" 
d="M437 703h-437v75h437v-75z" />
    <glyph glyph-name="degree" unicode="&#xb0;" horiz-adv-x="300" 
d="M218 599q0 30 -19 49q-20 19 -49 19t-49 -19q-19 -19 -19 -49q0 -29 19 -48q20 -19 49 -19t49 19q19 19 19 48zM268 599q0 -50 -34 -82q-33 -32 -84 -32t-84 32q-34 32 -34 82q0 51 34 83q33 32 84 32t84 -32q34 -32 34 -83z" />
    <glyph glyph-name="plusminus" unicode="&#xb1;" horiz-adv-x="612" 
d="M567 276h-203v-159h-117v159h-202v85h202v159h117v-159h203v-85zM567 11h-522v79h522v-79z" />
    <glyph glyph-name="acute" unicode="&#xb4;" horiz-adv-x="390" 
d="M198 518h-100l78 147h130z" />
    <glyph glyph-name="mu" unicode="&#xb5;" horiz-adv-x="562" 
d="M558 11q-48 -21 -101 -21q-50 0 -74 58q-44 -55 -115 -55q-60 0 -88 41v-246h-124v673h124v-293q0 -95 98 -95q68 0 103 59v329h124v-350q0 -29 24 -29q13 0 29 8v-79z" />
    <glyph glyph-name="paragraph" unicode="&#xb6;" horiz-adv-x="492" 
d="M440 -36h-50v645h-81v-645h-73v328q-83 1 -135 41q-64 49 -64 147q0 85 50 136q57 58 168 58h185v-710z" />
    <glyph glyph-name="periodcentered" unicode="&#xb7;" horiz-adv-x="242" 
d="M192 269q0 -31 -20 -52q-20 -20 -51 -20q-32 0 -51 20q-20 20 -20 52t20 52t52 20q31 0 50 -20t20 -52z" />
    <glyph glyph-name="cedilla" unicode="&#xb8;" horiz-adv-x="437" 
d="M236 -38q89 -7 89 -76q0 -101 -133 -101q-44 0 -81 13l10 50q23 -7 46 -7q77 0 77 50q0 44 -85 44l19 72h68z" />
    <glyph glyph-name="ordmasculine" unicode="&#xba;" horiz-adv-x="366" 
d="M183 401q71 0 71 99q0 100 -71 100t-71 -100q0 -99 71 -99zM345 500q0 -159 -162 -159t-162 159q0 160 162 160t162 -160z" />
    <glyph glyph-name="guillemotright" unicode="&#xbb;" horiz-adv-x="460" 
d="M322 31h-109l96 191l-96 190h109l100 -190zM147 31h-109l96 191l-96 190h109l99 -190z" />
    <glyph glyph-name="questiondown" unicode="&#xbf;" horiz-adv-x="518" 
d="M485 -133q-73 -68 -221 -68q-92 0 -149 37q-65 42 -65 121q0 94 100 164q55 38 69 52q31 32 31 72v47h107v-56q0 -76 -87 -146q-88 -70 -88 -115q0 -76 111 -76q95 0 154 45zM366 350h-127v111h127v-111z" />
    <glyph glyph-name="Agrave" unicode="&#xc0;" horiz-adv-x="673" 
d="M430 238l-95 303l-95 -303h190zM640 0h-138l-47 142h-240l-46 -142h-136l221 650h165zM416 707h-100l-108 147h130z" />
    <glyph glyph-name="Aacute" unicode="&#xc1;" horiz-adv-x="673" 
d="M430 238l-95 303l-95 -303h190zM640 0h-138l-47 142h-240l-46 -142h-136l221 650h165zM362 707h-100l78 147h130z" />
    <glyph glyph-name="Acircumflex" unicode="&#xc2;" horiz-adv-x="673" 
d="M430 238l-95 303l-95 -303h190zM640 0h-138l-47 142h-240l-46 -142h-136l221 650h165zM486 707h-90l-60 94l-60 -94h-90l105 157h90z" />
    <glyph glyph-name="Atilde" unicode="&#xc3;" horiz-adv-x="673" 
d="M430 238l-95 303l-95 -303h190zM640 0h-138l-47 142h-240l-46 -142h-136l221 650h165zM513 768q-44 -61 -103 -61q-22 0 -69 24q-48 24 -75 24q-46 0 -70 -49l-43 62q32 65 110 65q30 0 79 -21q49 -22 66 -22q38 0 62 41z" />
    <glyph glyph-name="Adieresis" unicode="&#xc4;" horiz-adv-x="673" 
d="M430 238l-95 303l-95 -303h190zM640 0h-138l-47 142h-240l-46 -142h-136l221 650h165zM284 707h-117v114h117v-114zM505 707h-118v114h118v-114z" />
    <glyph glyph-name="Aring" unicode="&#xc5;" horiz-adv-x="673" 
d="M430 238l-95 303l-95 -303h190zM640 0h-138l-47 142h-240l-46 -142h-136l221 650h165zM448 777q0 -46 -31 -76q-32 -32 -81 -32q-48 0 -80 32q-31 30 -31 76q0 45 31 76q32 32 80 32q49 0 81 -32q31 -31 31 -76zM281 777q0 -24 15.5 -39.5t39.5 -15.5t39.5 15.5
t15.5 39.5t-15.5 39.5t-39.5 15.5t-39.5 -15.5t-15.5 -39.5z" />
    <glyph glyph-name="AE" unicode="&#xc6;" horiz-adv-x="826" 
d="M792 0h-416v141h-165l-59 -141h-136l268 650h508v-96h-283v-179h236v-97h-236v-183h283v-95zM376 238v331l-140 -331h140z" />
    <glyph glyph-name="Ccedilla" unicode="&#xc7;" horiz-adv-x="610" 
d="M567 47q-73 -55 -193 -59l-6 -26q89 -7 89 -76q0 -101 -133 -101q-44 0 -81 13l10 50q23 -7 46 -7q77 0 77 50q0 44 -85 44l15 56q-123 16 -193 105t-70 228q0 152 84 244q85 92 226 92q127 0 205 -55l-50 -83q-56 40 -139 40q-84 0 -140 -65q-57 -66 -57 -173t56 -172
q55 -64 145 -64q88 0 149 45z" />
    <glyph glyph-name="Egrave" unicode="&#xc8;" horiz-adv-x="521" 
d="M481 0h-423v650h423v-96h-291v-180h228v-96h-228v-183h291v-95zM357 707h-100l-108 147h130z" />
    <glyph glyph-name="Eacute" unicode="&#xc9;" horiz-adv-x="521" 
d="M481 0h-423v650h423v-96h-291v-180h228v-96h-228v-183h291v-95zM263 707h-100l78 147h130z" />
    <glyph glyph-name="Ecircumflex" unicode="&#xca;" horiz-adv-x="521" 
d="M481 0h-423v650h423v-96h-291v-180h228v-96h-228v-183h291v-95zM410 707h-90l-60 94l-60 -94h-90l105 157h90z" />
    <glyph glyph-name="Edieresis" unicode="&#xcb;" horiz-adv-x="521" 
d="M481 0h-423v650h423v-96h-291v-180h228v-96h-228v-183h291v-95zM208 707h-117v114h117v-114zM429 707h-118v114h118v-114z" />
    <glyph glyph-name="Igrave" unicode="&#xcc;" horiz-adv-x="248" 
d="M190 0h-132v650h132v-650zM202 707h-100l-108 147h130z" />
    <glyph glyph-name="Iacute" unicode="&#xcd;" horiz-adv-x="248" 
d="M190 0h-132v650h132v-650zM152 707h-100l78 147h130z" />
    <glyph glyph-name="Icircumflex" unicode="&#xce;" horiz-adv-x="248" 
d="M190 0h-132v650h132v-650zM280 707h-90l-60 94l-60 -94h-90l105 157h90z" />
    <glyph glyph-name="Idieresis" unicode="&#xcf;" horiz-adv-x="248" 
d="M190 0h-132v650h132v-650zM72 707h-117v114h117v-114zM293 707h-118v114h118v-114z" />
    <glyph glyph-name="Ntilde" unicode="&#xd1;" horiz-adv-x="638" 
d="M580 0h-122l-269 447v-447h-131v650h126l265 -452v452h131v-650zM496 768q-44 -61 -103 -61q-22 0 -69 24q-48 24 -75 24q-46 0 -70 -49l-43 62q32 65 110 65q30 0 79 -21q49 -22 66 -22q38 0 62 41z" />
    <glyph glyph-name="Ograve" unicode="&#xd2;" horiz-adv-x="680" 
d="M340 88q167 0 167 237t-167 237t-167 -237t167 -237zM558 77q-79 -89 -218 -89t-218 89t-79 248q0 158 79 247q79 88 218 88t218 -88q79 -89 79 -247t-79 -248zM437 707h-100l-108 147h130z" />
    <glyph glyph-name="Oacute" unicode="&#xd3;" horiz-adv-x="680" 
d="M340 88q167 0 167 237t-167 237t-167 -237t167 -237zM637 325q0 -158 -79 -248q-79 -89 -218 -89t-218 89t-79 248q0 158 79 247q79 88 218 88t218 -88q79 -89 79 -247zM343 707h-100l78 147h130z" />
    <glyph glyph-name="Ocircumflex" unicode="&#xd4;" horiz-adv-x="680" 
d="M340 88q167 0 167 237t-167 237t-167 -237t167 -237zM558 77q-79 -89 -218 -89t-218 89t-79 248q0 158 79 247q79 88 218 88t218 -88q79 -89 79 -247t-79 -248zM490 707h-90l-60 94l-60 -94h-90l105 157h90z" />
    <glyph glyph-name="Otilde" unicode="&#xd5;" horiz-adv-x="680" 
d="M340 88q167 0 167 237t-167 237t-167 -237t167 -237zM637 325q0 -158 -79 -248q-79 -89 -218 -89t-218 89t-79 248q0 158 79 247q79 88 218 88t218 -88q79 -89 79 -247zM517 768q-44 -61 -103 -61q-22 0 -69 24q-48 24 -75 24q-46 0 -70 -49l-43 62q32 65 110 65
q30 0 79 -21q49 -22 66 -22q38 0 62 41z" />
    <glyph glyph-name="Odieresis" unicode="&#xd6;" horiz-adv-x="680" 
d="M340 88q167 0 167 237t-167 237t-167 -237t167 -237zM558 77q-79 -89 -218 -89t-218 89t-79 248q0 158 79 247q79 88 218 88t218 -88q79 -89 79 -247t-79 -248zM288 707h-117v114h117v-114zM509 707h-118v114h118v-114z" />
    <glyph glyph-name="Oslash" unicode="&#xd8;" horiz-adv-x="680" 
d="M188 -52h-68l45 92q-122 84 -122 285q0 158 79 247q79 88 218 88q66 0 118 -21l25 51h71l-40 -80q123 -84 123 -285q0 -158 -79 -247q-79 -88 -218 -88q-64 0 -122 21zM410 547q-33 15 -70 15q-167 0 -167 -237q0 -128 47 -183zM268 103q30 -15 72 -15q167 0 167 237
q0 127 -48 183z" />
    <glyph glyph-name="Ugrave" unicode="&#xd9;" horiz-adv-x="630" 
d="M577 217q0 -111 -71 -171q-69 -58 -191 -58t-191 58q-71 60 -71 171v433h132v-437q0 -125 130 -125t130 125v437h132v-433zM412 707h-100l-108 147h130z" />
    <glyph glyph-name="Uacute" unicode="&#xda;" horiz-adv-x="630" 
d="M577 217q0 -111 -71 -171q-69 -58 -191 -58t-191 58q-71 60 -71 171v433h132v-437q0 -125 130 -125t130 125v437h132v-433zM318 707h-100l78 147h130z" />
    <glyph glyph-name="Ucircumflex" unicode="&#xdb;" horiz-adv-x="630" 
d="M577 217q0 -111 -71 -171q-69 -58 -191 -58t-191 58q-71 60 -71 171v433h132v-437q0 -125 130 -125t130 125v437h132v-433zM465 707h-90l-60 94l-60 -94h-90l105 157h90z" />
    <glyph glyph-name="Udieresis" unicode="&#xdc;" horiz-adv-x="630" 
d="M577 217q0 -111 -71 -171q-69 -58 -191 -58t-191 58q-71 60 -71 171v433h132v-437q0 -125 130 -125t130 125v437h132v-433zM263 707h-117v114h117v-114zM484 707h-118v114h118v-114z" />
    <glyph glyph-name="uni00DF" unicode="&#xdf;" horiz-adv-x="636" 
d="M184 -69q0 -75 -33 -140l-113 23q27 63 27 117v462q0 260 250 260q124 0 185 -52q50 -43 50 -111q0 -58 -44 -98t-44 -61q0 -14 71 -68q70 -54 70 -123q0 -67 -57 -109q-56 -41 -139 -41q-97 0 -151 64l40 69q28 -42 90 -42q93 0 93 74q0 36 -72 84q-72 47 -72 93
q0 43 45 81q44 38 44 66q0 83 -113 83q-61 0 -94 -45q-33 -44 -33 -123v-463z" />
    <glyph glyph-name="agrave" unicode="&#xe0;" horiz-adv-x="513" 
d="M460 0h-112l-12 54q-50 -66 -152 -66q-62 0 -104 36q-43 36 -43 95q0 96 91 136q70 30 208 30q0 50 -16 72q-22 32 -85 32q-66 0 -126 -41l-40 70q80 54 193 54q198 0 198 -187v-285zM336 221q-95 0 -135 -20q-41 -21 -41 -70q0 -69 78 -69q98 0 98 95v64zM353 518h-100
l-108 147h130z" />
    <glyph glyph-name="aacute" unicode="&#xe1;" horiz-adv-x="513" 
d="M460 0h-112l-12 54q-50 -66 -152 -66q-62 0 -104 36q-43 36 -43 95q0 96 91 136q70 30 208 30q0 50 -16 72q-22 32 -85 32q-66 0 -126 -41l-40 70q80 54 193 54q198 0 198 -187v-285zM336 221q-95 0 -135 -20q-41 -21 -41 -70q0 -69 78 -69q98 0 98 95v64zM259 518h-100
l78 147h130z" />
    <glyph glyph-name="acircumflex" unicode="&#xe2;" horiz-adv-x="513" 
d="M460 0h-112l-12 54q-50 -66 -152 -66q-62 0 -104 36q-43 36 -43 95q0 96 91 136q70 30 208 30q0 50 -16 72q-22 32 -85 32q-66 0 -126 -41l-40 70q80 54 193 54q198 0 198 -187v-285zM336 221q-95 0 -135 -20q-41 -21 -41 -70q0 -69 78 -69q98 0 98 95v64zM406 518h-90
l-60 94l-60 -94h-90l105 157h90z" />
    <glyph glyph-name="atilde" unicode="&#xe3;" horiz-adv-x="513" 
d="M460 0h-112l-12 54q-50 -66 -152 -66q-62 0 -104 36q-43 36 -43 95q0 96 91 136q70 30 208 30q0 50 -16 72q-22 32 -85 32q-66 0 -126 -41l-40 70q80 54 193 54q198 0 198 -187v-285zM336 221q-95 0 -135 -20q-41 -21 -41 -70q0 -69 78 -69q98 0 98 95v64zM433 579
q-44 -61 -103 -61q-22 0 -69 24q-48 24 -75 24q-46 0 -70 -49l-43 62q32 65 110 65q30 0 79 -21q49 -22 66 -22q38 0 62 41z" />
    <glyph glyph-name="adieresis" unicode="&#xe4;" horiz-adv-x="513" 
d="M460 0h-112l-12 54q-50 -66 -152 -66q-62 0 -104 36q-43 36 -43 95q0 96 91 136q70 30 208 30q0 50 -16 72q-22 32 -85 32q-66 0 -126 -41l-40 70q80 54 193 54q198 0 198 -187v-285zM336 221q-95 0 -135 -20q-41 -21 -41 -70q0 -69 78 -69q98 0 98 95v64zM204 518h-117
v114h117v-114zM425 518h-118v114h118v-114z" />
    <glyph glyph-name="aring" unicode="&#xe5;" horiz-adv-x="513" 
d="M460 0h-112l-12 54q-50 -66 -152 -66q-62 0 -104 36q-43 36 -43 95q0 96 91 136q70 30 208 30q0 50 -16 72q-22 32 -85 32q-66 0 -126 -41l-40 70q80 54 193 54q198 0 198 -187v-285zM336 221q-95 0 -135 -20q-41 -21 -41 -70q0 -69 78 -69q98 0 98 95v64zM382 598
q0 -46 -31 -76q-32 -32 -81 -32q-48 0 -80 32q-31 30 -31 76q0 45 31 76q32 32 80 32q49 0 81 -32q31 -31 31 -76zM325 598q0 24 -15.5 39.5t-39.5 15.5t-39.5 -15.5t-15.5 -39.5t15.5 -39.5t39.5 -15.5t39.5 15.5t15.5 39.5z" />
    <glyph glyph-name="ae" unicode="&#xe6;" horiz-adv-x="785" 
d="M722 37q-72 -47 -171 -47q-120 0 -174 61q-50 -61 -174 -61q-76 0 -121 38q-45 37 -45 98q0 149 263 155q5 44 21 74q-22 34 -86 34q-66 0 -126 -41l-40 70q80 54 193 54q89 0 131 -48q54 48 133 48q216 0 216 -263h-333q6 -136 155 -136q69 0 123 38zM640 280
q-1 49 -30 79q-30 30 -80 30q-108 0 -120 -109h230zM238 62q62 0 87 40q-26 46 -29 114q-136 -7 -136 -85q0 -69 78 -69z" />
    <glyph glyph-name="ccedilla" unicode="&#xe7;" horiz-adv-x="497" 
d="M457 34q-47 -36 -133 -43l-8 -37q89 -7 89 -76q0 -101 -133 -101q-44 0 -81 13l10 50q23 -7 46 -7q77 0 77 50q0 44 -85 44l17 65q-99 11 -155 73q-58 63 -58 166q0 114 69 178q67 63 183 63q96 0 154 -43l-34 -73q-40 33 -109 33q-62 0 -100 -41q-40 -43 -40 -117
t40 -117q39 -41 103 -41q76 0 115 33z" />
    <glyph glyph-name="egrave" unicode="&#xe8;" horiz-adv-x="532" 
d="M388 280q-1 49 -30 79q-30 30 -80 30q-108 0 -120 -109h230zM470 37q-74 -47 -171 -47q-119 0 -187 63q-69 65 -69 179q0 113 63 177q62 63 168 63q215 0 215 -263h-332q4 -136 155 -136q69 0 123 38zM363 518h-100l-108 147h130z" />
    <glyph glyph-name="eacute" unicode="&#xe9;" horiz-adv-x="532" 
d="M388 280q-1 49 -30 79q-30 30 -80 30q-108 0 -120 -109h230zM470 37q-74 -47 -171 -47q-119 0 -187 63q-69 65 -69 179q0 113 63 177q62 63 168 63q215 0 215 -263h-332q4 -136 155 -136q69 0 123 38zM269 518h-100l78 147h130z" />
    <glyph glyph-name="ecircumflex" unicode="&#xea;" horiz-adv-x="532" 
d="M388 280q-1 49 -30 79q-30 30 -80 30q-108 0 -120 -109h230zM470 37q-74 -47 -171 -47q-119 0 -187 63q-69 65 -69 179q0 113 63 177q62 63 168 63q215 0 215 -263h-332q4 -136 155 -136q69 0 123 38zM416 518h-90l-60 94l-60 -94h-90l105 157h90z" />
    <glyph glyph-name="edieresis" unicode="&#xeb;" horiz-adv-x="532" 
d="M388 280q-1 49 -30 79q-30 30 -80 30q-108 0 -120 -109h230zM470 37q-74 -47 -171 -47q-119 0 -187 63q-69 65 -69 179q0 113 63 177q62 63 168 63q215 0 215 -263h-332q4 -136 155 -136q69 0 123 38zM214 518h-117v114h117v-114zM435 518h-118v114h118v-114z" />
    <glyph glyph-name="igrave" unicode="&#xec;" horiz-adv-x="247" 
d="M187 0h-124v461h124v-461zM199 518h-100l-108 147h130z" />
    <glyph glyph-name="iacute" unicode="&#xed;" horiz-adv-x="247" 
d="M187 0h-124v461h124v-461zM157 518h-100l78 147h130z" />
    <glyph glyph-name="icircumflex" unicode="&#xee;" horiz-adv-x="247" 
d="M187 0h-124v461h124v-461zM280 518h-90l-60 94l-60 -94h-90l105 157h90z" />
    <glyph glyph-name="idieresis" unicode="&#xef;" horiz-adv-x="247" 
d="M187 0h-124v461h124v-461zM72 518h-117v114h117v-114zM293 518h-118v114h118v-114z" />
    <glyph glyph-name="ntilde" unicode="&#xf1;" horiz-adv-x="560" 
d="M507 0h-124v302q0 87 -87 87q-72 0 -114 -59v-330h-124v461h112l10 -49q65 60 167 60q76 0 118 -41t42 -116v-315zM457 579q-44 -61 -103 -61q-22 0 -69 24q-48 24 -75 24q-46 0 -70 -49l-43 62q32 65 110 65q30 0 79 -21q49 -22 66 -22q38 0 62 41z" />
    <glyph glyph-name="ograve" unicode="&#xf2;" horiz-adv-x="560" 
d="M280 73q118 0 118 158t-118 158q-117 0 -117 -158t117 -158zM280 -10q-117 0 -180 64q-63 63 -63 177t63 177q63 64 180 64t181 -64q62 -63 62 -177t-62 -177q-64 -64 -181 -64zM377 518h-100l-108 147h130z" />
    <glyph glyph-name="oacute" unicode="&#xf3;" horiz-adv-x="560" 
d="M280 73q118 0 118 158t-118 158q-117 0 -117 -158t117 -158zM280 -10q-117 0 -180 64q-63 63 -63 177t63 177q63 64 180 64t181 -64q62 -63 62 -177t-62 -177q-64 -64 -181 -64zM283 518h-100l78 147h130z" />
    <glyph glyph-name="ocircumflex" unicode="&#xf4;" horiz-adv-x="560" 
d="M280 73q118 0 118 158t-118 158q-117 0 -117 -158t117 -158zM280 -10q-117 0 -180 64q-63 63 -63 177t63 177q63 64 180 64t181 -64q62 -63 62 -177t-62 -177q-64 -64 -181 -64zM430 518h-90l-60 94l-60 -94h-90l105 157h90z" />
    <glyph glyph-name="otilde" unicode="&#xf5;" horiz-adv-x="560" 
d="M280 73q118 0 118 158t-118 158q-117 0 -117 -158t117 -158zM280 -10q-117 0 -180 64q-63 63 -63 177t63 177q63 64 180 64t181 -64q62 -63 62 -177t-62 -177q-64 -64 -181 -64zM457 579q-44 -61 -103 -61q-22 0 -69 24q-48 24 -75 24q-46 0 -70 -49l-43 62q32 65 110 65
q30 0 79 -21q49 -22 66 -22q38 0 62 41z" />
    <glyph glyph-name="odieresis" unicode="&#xf6;" horiz-adv-x="560" 
d="M280 73q118 0 118 158t-118 158q-117 0 -117 -158t117 -158zM280 -10q-117 0 -180 64q-63 63 -63 177t63 177q63 64 180 64t181 -64q62 -63 62 -177t-62 -177q-64 -64 -181 -64zM228 518h-117v114h117v-114zM449 518h-118v114h118v-114z" />
    <glyph glyph-name="divide" unicode="&#xf7;" horiz-adv-x="572" 
d="M493 226h-414v91h414v-91zM347 37h-122v117h122v-117zM347 389h-122v117h122v-117z" />
    <glyph glyph-name="oslash" unicode="&#xf8;" horiz-adv-x="556" 
d="M164 -44h-68l35 71q-96 61 -96 204q0 114 63 177q63 64 180 64q36 0 67 -6l21 43h71l-31 -64q115 -57 115 -214q0 -114 -62 -177q-64 -64 -181 -64q-45 0 -91 12zM227 84q22 -11 51 -11q118 0 118 158q0 82 -36 122zM306 386q-13 3 -28 3q-117 0 -117 -158q0 -64 20 -101
z" />
    <glyph glyph-name="ugrave" unicode="&#xf9;" horiz-adv-x="560" 
d="M502 0h-113l-9 50q-60 -60 -155 -60q-78 0 -125 44t-47 122v305h124v-299q0 -89 98 -89q68 0 103 59v329h124v-461zM377 518h-100l-108 147h130z" />
    <glyph glyph-name="uacute" unicode="&#xfa;" horiz-adv-x="560" 
d="M502 0h-113l-9 50q-60 -60 -155 -60q-78 0 -125 44t-47 122v305h124v-299q0 -89 98 -89q68 0 103 59v329h124v-461zM283 518h-100l78 147h130z" />
    <glyph glyph-name="ucircumflex" unicode="&#xfb;" horiz-adv-x="560" 
d="M502 0h-113l-9 50q-60 -60 -155 -60q-78 0 -125 44t-47 122v305h124v-299q0 -89 98 -89q68 0 103 59v329h124v-461zM430 518h-90l-60 94l-60 -94h-90l105 157h90z" />
    <glyph glyph-name="udieresis" unicode="&#xfc;" horiz-adv-x="560" 
d="M502 0h-113l-9 50q-60 -60 -155 -60q-78 0 -125 44t-47 122v305h124v-299q0 -89 98 -89q68 0 103 59v329h124v-461zM228 518h-117v114h117v-114zM449 518h-118v114h118v-114z" />
    <glyph glyph-name="ydieresis" unicode="&#xff;" horiz-adv-x="561" 
d="M255 -176h-118l80 189l-186 449h120l126 -347l131 347h120zM228 518h-117v114h117v-114zM449 518h-118v114h118v-114z" />
    <glyph glyph-name="dotlessi" unicode="&#x131;" horiz-adv-x="247" 
d="M187 0h-124v461h124v-461z" />
    <glyph glyph-name="OE" unicode="&#x152;" horiz-adv-x="949" 
d="M915 0h-423v67q-59 -77 -181 -77q-119 0 -194 88q-78 92 -78 247t78 247q75 88 194 88q124 0 181 -77v67h423v-96h-290v-167h243v-97h-243v-195h290v-95zM336 88q138 0 156 171q0 113 -12 206q-39 97 -144 97q-167 0 -167 -237t167 -237z" />
    <glyph glyph-name="oe" unicode="&#x153;" horiz-adv-x="818" 
d="M761 36q-71 -46 -169 -46q-99 0 -163 50q-59 -50 -156 -50q-114 0 -177 63t-63 176t63 176t177 63q91 0 150 -45q55 49 143 49q214 0 214 -259h-328q4 -140 153 -140q65 0 121 38zM273 73q55 0 86 45q-22 52 -22 114q0 63 20 111q-30 42 -84 42q-55 0 -85 -42
q-29 -42 -29 -114t29 -114q30 -42 85 -42zM676 284q-1 48 -30 77q-29 28 -76 28q-106 0 -117 -105h223z" />
    <glyph glyph-name="Ydieresis" unicode="&#x178;" horiz-adv-x="637" 
d="M384 0h-132v227l-221 423h136l151 -315l151 315h137l-222 -423v-227zM266 707h-117v114h117v-114zM487 707h-118v114h118v-114z" />
    <glyph glyph-name="florin" unicode="&#x192;" horiz-adv-x="334" 
d="M154 0q-11 -52 -52 -80q-37 -27 -89 -27q-68 0 -118 45l35 52q24 -21 58 -21q47 0 56 41l74 345h-89l14 60h88l17 77q24 113 136 113q45 0 95 -24l-20 -56q-20 9 -44 9q-47 -2 -59 -52l-15 -67h98l-15 -60h-95z" />
    <glyph glyph-name="circumflex" unicode="&#x2c6;" horiz-adv-x="390" 
d="M345 518h-90l-60 94l-60 -94h-90l105 157h90z" />
    <glyph glyph-name="caron" unicode="&#x2c7;" horiz-adv-x="437" 
d="M264 518h-90l-105 167h92l58 -101l58 101h92z" />
    <glyph glyph-name="breve" unicode="&#x2d8;" horiz-adv-x="437" 
d="M360 680q-20 -129 -154 -129q-130 0 -154 129h83q10 -59 71 -59q64 0 71 59h83z" />
    <glyph glyph-name="dotaccent" unicode="&#x2d9;" horiz-adv-x="437" 
d="M278 602h-119v119h119v-119z" />
    <glyph glyph-name="ring" unicode="&#x2da;" horiz-adv-x="437" 
d="M331 572q0 -46 -31 -76q-32 -32 -81 -32q-48 0 -80 32q-31 30 -31 76q0 45 31 76q32 32 80 32q49 0 81 -32q31 -31 31 -76zM274 572q0 24 -15.5 39.5t-39.5 15.5t-39.5 -15.5t-15.5 -39.5t15.5 -39.5t39.5 -15.5t39.5 15.5t15.5 39.5z" />
    <glyph glyph-name="ogonek" unicode="&#x2db;" horiz-adv-x="437" 
d="M333 -205q-55 -23 -116 -21q-120 2 -120 111q0 62 47 117h99q-46 -54 -46 -98q0 -55 59 -57q34 0 77 17v-69z" />
    <glyph glyph-name="tilde" unicode="&#x2dc;" horiz-adv-x="437" 
d="M398 579q-44 -61 -103 -61q-22 0 -69 24q-48 24 -75 24q-46 0 -70 -49l-43 62q32 65 110 65q30 0 79 -21q49 -22 66 -22q38 0 62 41z" />
    <glyph glyph-name="hungarumlaut" unicode="&#x2dd;" horiz-adv-x="437" 
d="M117 518h-86l78 147h116zM298 518h-86l78 147h116z" />
    <glyph glyph-name="endash" unicode="&#x2013;" horiz-adv-x="547" 
d="M497 207h-447v89h447v-89z" />
    <glyph glyph-name="emdash" unicode="&#x2014;" horiz-adv-x="708" 
d="M658 207h-608v89h608v-89z" />
    <glyph glyph-name="quoteleft" unicode="&#x2018;" horiz-adv-x="283" 
d="M174 425h-131l113 273h84z" />
    <glyph glyph-name="quoteright" unicode="&#x2019;" horiz-adv-x="283" 
d="M126 425h-83l66 273h131z" />
    <glyph glyph-name="quotesinglbase" unicode="&#x201a;" horiz-adv-x="283" 
d="M126 -131h-83l66 273h131z" />
    <glyph glyph-name="quotedblleft" unicode="&#x201c;" horiz-adv-x="458" 
d="M349 425h-130l113 273h83zM174 425h-131l113 273h84z" />
    <glyph glyph-name="quotedblright" unicode="&#x201d;" horiz-adv-x="458" 
d="M126 425h-83l66 273h131zM302 425h-83l66 273h130z" />
    <glyph glyph-name="quotedblbase" unicode="&#x201e;" horiz-adv-x="458" 
d="M126 -131h-83l66 273h131zM302 -131h-83l66 273h130z" />
    <glyph glyph-name="dagger" unicode="&#x2020;" horiz-adv-x="464" 
d="M292 0h-118v456h-122v85h122v169h118v-169h120v-85h-120v-456z" />
    <glyph glyph-name="daggerdbl" unicode="&#x2021;" horiz-adv-x="464" 
d="M292 0h-118v188h-122v86h122v182h-122v85h122v169h118v-169h120v-85h-120v-182h120v-86h-120v-188z" />
    <glyph glyph-name="bullet" unicode="&#x2022;" horiz-adv-x="385" 
d="M329 271q0 -62 -37 -99q-38 -38 -100 -38q-61 0 -99 38q-37 37 -37 99t37 100q38 38 99 38q62 0 100 -38q37 -38 37 -100z" />
    <glyph glyph-name="ellipsis" unicode="&#x2026;" horiz-adv-x="714" 
d="M187 0h-133v136h133v-136zM423 0h-133v136h133v-136zM660 0h-133v136h133v-136z" />
    <glyph glyph-name="perthousand" unicode="&#x2030;" horiz-adv-x="1355" 
d="M363 0h-113l342 651h112zM296 456q0 126 -82 126t-82 -126t82 -126t82 126zM394 456q0 -97 -49 -149q-47 -50 -131 -50t-131 50q-49 52 -49 149q0 96 49 148q47 50 131 50t131 -50q49 -52 49 -148zM817 188q0 127 -82 127t-82 -127q0 -126 82 -126t82 126zM915 188
q0 -96 -49 -148q-47 -50 -131 -50t-131 50q-49 52 -49 148q0 97 49 149q47 50 131 50t131 -50q49 -52 49 -149zM1223 188q0 127 -82 127t-82 -127q0 -126 82 -126t82 126zM1321 188q0 -96 -49 -148q-47 -50 -131 -50t-131 50q-49 52 -49 148q0 97 49 149q47 50 131 50
t131 -50q49 -52 49 -149z" />
    <glyph glyph-name="guilsinglleft" unicode="&#x2039;" horiz-adv-x="296" 
d="M258 31h-108l-112 191l112 190h108l-108 -190z" />
    <glyph glyph-name="guilsinglright" unicode="&#x203a;" horiz-adv-x="296" 
d="M147 31h-109l108 191l-108 190h109l111 -190z" />
    <glyph glyph-name="fraction" unicode="&#x2044;" horiz-adv-x="144" 
d="M-11 0h-77l249 642h74z" />
    <glyph glyph-name="Euro" unicode="&#x20ac;" horiz-adv-x="532" 
d="M501 46q-76 -58 -180 -58q-102 0 -170 60q-66 58 -87 161h-57l21 48h29q-2 32 -2 48t2 44h-50l21 49h35q21 105 87 164q68 61 171 61q106 0 180 -58l-34 -80q-56 41 -131 41q-123 0 -156 -128h258l-22 -49h-246q-2 -14 -2 -44q0 -33 2 -48h215l-23 -48h-182
q36 -123 156 -123q76 0 131 40z" />
    <glyph glyph-name="trademark" unicode="&#x2122;" horiz-adv-x="629" 
d="M175 411h-67v191h-74v48h212v-48h-71v-191zM584 411h-66v168l-65 -122h-33l-65 122v-168h-68v239h84l66 -129l67 129h80v-239z" />
    <glyph glyph-name="Ohm" unicode="&#x2126;" horiz-adv-x="684" 
d="M646 0h-236v135q64 28 102 91q37 61 37 136q0 96 -59 154q-58 56 -148 56t-148 -56q-59 -58 -59 -154q0 -75 37 -136q38 -63 102 -91v-135h-236v70h162v38q-71 34 -112 114q-36 70 -36 143q0 132 85 206q79 68 205 68t205 -68q85 -74 85 -206q0 -73 -36 -143
q-41 -80 -112 -114v-38h162v-70z" />
    <glyph glyph-name="partialdiff" unicode="&#x2202;" horiz-adv-x="572" 
d="M128 528q66 155 206 155q85 0 129 -72q41 -67 41 -187q0 -179 -69 -301q-77 -137 -211 -137q-78 0 -122 44q-44 43 -44 118q0 98 84 175q98 90 270 101q0 185 -87 185q-81 0 -127 -112zM348 155q53 93 62 212q-118 -11 -194 -79q-70 -62 -70 -136q0 -92 89 -92
q60 0 113 95z" />
    <glyph glyph-name="Delta" unicode="&#x2206;" horiz-adv-x="618" 
d="M606 0h-592l305 582zM438 69l-152 339l-173 -339h325z" />
    <glyph glyph-name="product" unicode="&#x220f;" horiz-adv-x="657" 
d="M597 -130h-105v662h-327v-662h-103v755h535v-755z" />
    <glyph glyph-name="summation" unicode="&#x2211;" horiz-adv-x="639" 
d="M592 -139h-552v62l315 320l-315 320v62h552v-78h-414l279 -284v-40l-278 -284h413v-78z" />
    <glyph glyph-name="radical" unicode="&#x221a;" horiz-adv-x="502" 
d="M287 13h-86l-102 282h-77v69h137l84 -249l185 565h81z" />
    <glyph glyph-name="infinity" unicode="&#x221e;" horiz-adv-x="843" 
d="M234 210q70 0 136 89q-80 82 -136 82q-41 0 -68 -27q-25 -24 -25 -54q0 -40 24 -64q25 -26 69 -26zM611 453q76 0 124 -44q48 -46 48 -120q0 -61 -48 -106q-50 -47 -123 -47q-106 0 -193 108q-85 -108 -185 -108q-77 0 -125 45q-49 46 -49 120q0 62 44 105q48 47 128 47
q101 0 194 -108q86 108 185 108zM609 378q-76 0 -136 -87q78 -85 138 -85q40 0 67 28q24 25 24 57q0 38 -23 62q-25 25 -70 25z" />
    <glyph glyph-name="integral" unicode="&#x222b;" horiz-adv-x="396" 
d="M234 269q-16 -158 -27 -248q-20 -168 -158 -168q-37 0 -65 9l17 70q16 -4 37 -4q70 0 89 128q7 61 22 221q15 153 26 233q23 176 165 176q32 0 55 -7l-16 -67q-9 2 -31 2q-79 0 -91 -123z" />
    <glyph glyph-name="approxequal" unicode="&#x2248;" horiz-adv-x="572" 
d="M518 338q-55 -76 -130 -76q-36 0 -111 33t-110 33q-47 0 -97 -52l-31 60q53 72 134 72q43 0 112 -32q70 -32 106 -32q39 0 93 52zM518 152q-55 -75 -130 -75q-37 0 -111 33q-74 32 -110 32q-49 0 -97 -52l-31 60q53 72 134 72q43 0 112 -32q70 -32 106 -32q40 0 93 53z
" />
    <glyph glyph-name="notequal" unicode="&#x2260;" horiz-adv-x="572" 
d="M492 111h-233l-44 -95h-85l43 95h-93v90h137l49 108h-186v90h231l44 95h85l-44 -95h96v-90h-140l-49 -108h189v-90z" />
    <glyph glyph-name="lessequal" unicode="&#x2264;" horiz-adv-x="572" 
d="M490 117l-408 171v66l408 170v-80l-286 -123l286 -124v-80zM490 14h-408v76h408v-76z" />
    <glyph glyph-name="greaterequal" unicode="&#x2265;" horiz-adv-x="572" 
d="M490 288l-408 -171v80l286 124l-286 123v80l408 -170v-66zM490 14h-408v76h408v-76z" />
    <glyph glyph-name="lozenge" unicode="&#x25ca;" horiz-adv-x="514" 
d="M257 96l136 213l-136 213l-137 -213zM280 3h-47l-197 306l197 305h47l197 -305z" />
    <glyph glyph-name="uni0E33.alt1" horiz-adv-x="423" 
d="M370 0h-123v375q0 92 -89 92q-64 0 -114 -40l-36 76q68 47 173 47q189 0 189 -179v-371zM-330 608q-45 0 -73 23q-31 23 -31 64t31 66q29 24 73 24t73 -24q30 -25 30 -66t-30 -64q-29 -23 -73 -23zM-330 659q37 0 37 36t-37 36q-38 0 -38 -36t38 -36z" />
    <glyph glyph-name=".null" 
 />
    <glyph glyph-name=".null" 
 />
    <glyph glyph-name="nonmarkingreturn" unicode="&#xd;" horiz-adv-x="270" 
 />
    <glyph glyph-name="uni0E4E.alt1" 
d="M-266 625h-112q-83 0 -83 65q0 57 74 69q-28 21 -28 50q0 27 22 46q24 20 61 20h139v-47h-78q-40 0 -40 -25t30 -25h25v-44h-54q-52 0 -52 -37q0 -28 39 -28h57v-44z" />
    <glyph glyph-name="currency" unicode="&#xa4;" horiz-adv-x="455" 
d="M406 97l-40 -40l-33 31q-40 -34 -106 -34t-106 34l-34 -31l-39 40l35 33q-29 41 -29 93q0 54 31 97l-37 36l39 39l36 -34q40 32 104 32q63 0 103 -32l36 34l40 -39l-37 -35q31 -43 31 -98q0 -53 -29 -94zM119 223q0 -48 30 -79q31 -30 78 -30q48 0 79 30q30 30 30 79
t-30 80q-31 30 -79 30t-78 -30q-30 -31 -30 -80z" />
    <glyph glyph-name="brokenbar" unicode="&#xa6;" horiz-adv-x="230" 
d="M166 347h-102v374h102v-374zM166 -144h-102v386h102v-386z" />
    <glyph glyph-name="twosuperior" unicode="&#xb2;" horiz-adv-x="284" 
d="M262 345h-235v50q0 53 79 99q78 45 78 72q0 36 -59 36q-42 0 -77 -23l-20 50q47 31 111 31q123 0 123 -94q0 -53 -75 -97q-76 -45 -76 -70h151v-54z" />
    <glyph glyph-name="threesuperior" unicode="&#xb3;" horiz-adv-x="284" 
d="M42 425q37 -23 90 -23q55 0 55 41q0 40 -64 40h-41v54h54q48 0 48 32q0 30 -57 30q-50 0 -85 -23l-19 54q47 30 116 30q120 0 120 -80q0 -53 -50 -68q54 -37 54 -78q0 -46 -38 -71q-34 -23 -86 -23q-70 0 -116 31z" />
    <glyph glyph-name="onesuperior" unicode="&#xb9;" horiz-adv-x="284" 
d="M269 345h-238v51h83v190l-70 -43l-28 51l107 66h68v-264h78v-51z" />
    <glyph glyph-name="onequarter" unicode="&#xbc;" horiz-adv-x="643" 
d="M587 0h-78v60h-167v56l157 199h88v-202h36v-53h-36v-60zM509 113v127l-90 -127h90zM267 345h-224v51h76v190l-70 -43l-27 51l106 66h69v-264h70v-51zM205 41h-85l367 573h84z" />
    <glyph glyph-name="onehalf" unicode="&#xbd;" horiz-adv-x="643" 
d="M195 41h-85l367 573h84zM267 345h-224v51h76v190l-70 -43l-27 51l106 66h69v-264h70v-51zM619 0h-235v51q0 52 79 98q79 45 79 72q0 37 -60 37q-39 0 -77 -23l-20 49q47 31 112 31q122 0 122 -94q0 -49 -64 -88q-74 -45 -80 -58q-5 -8 -7 -20h151v-55z" />
    <glyph glyph-name="threequarters" unicode="&#xbe;" horiz-adv-x="643" 
d="M587 0h-78v60h-167v56l157 199h88v-202h36v-53h-36v-60zM509 113v127l-90 -127h90zM42 425q37 -23 90 -23q55 0 55 41q0 40 -64 40h-41v54h54q48 0 48 32q0 30 -57 30q-50 0 -85 -23l-19 54q47 30 116 30q120 0 120 -80q0 -53 -50 -68q54 -37 54 -78q0 -46 -38 -71
q-34 -23 -86 -23q-70 0 -116 31zM193 41h-85l367 573h84z" />
    <glyph glyph-name="Eth" unicode="&#xd0;" horiz-adv-x="611" 
d="M58 0v280h-50v83h50v287h219q297 0 297 -324q0 -326 -297 -326h-219zM273 96q95 0 135 56q36 52 36 173q0 120 -36 172q-40 57 -136 57h-82v-191h118v-83h-118v-184h83z" />
    <glyph glyph-name="multiply" unicode="&#xd7;" horiz-adv-x="572" 
d="M498 100l-71 -70l-141 135l-141 -135l-71 70l141 133l-141 135l70 67l142 -135l142 135l70 -67l-141 -135z" />
    <glyph glyph-name="Yacute" unicode="&#xdd;" horiz-adv-x="637" 
d="M384 0h-132v227l-221 423h136l151 -315l151 315h137l-222 -423v-227zM321 707h-100l78 147h130z" />
    <glyph glyph-name="Thorn" unicode="&#xde;" horiz-adv-x="537" 
d="M190 145q18 -2 52 -2q134 0 134 130q0 129 -134 129q-25 0 -52 -3v-254zM190 -42h-132v631h132v-94q44 2 65 2q115 0 179 -53q70 -57 70 -171t-70 -171q-64 -53 -179 -53q-21 0 -65 2v-93z" />
    <glyph glyph-name="eth" unicode="&#xf0;" horiz-adv-x="572" 
d="M489 618l-53 -26q93 -91 93 -295q0 -158 -72 -236q-66 -71 -183 -71q-107 0 -169 66q-61 64 -61 167q0 97 62 154q58 54 147 54q109 0 161 -72q-5 137 -72 190l-155 -77l-22 47l109 57q-19 8 -49 8q-51 0 -105 -16l-21 69q71 28 141 28q83 0 145 -35l79 39zM281 78
q50 0 82 39t32 99q0 58 -33 94q-32 35 -81 35q-50 0 -80 -34q-32 -36 -32 -95q0 -60 32 -99t80 -39z" />
    <glyph glyph-name="yacute" unicode="&#xfd;" horiz-adv-x="561" 
d="M255 -176h-118l80 189l-186 449h120l126 -347l131 347h120zM283 518h-100l78 147h130z" />
    <glyph glyph-name="thorn" unicode="&#xfe;" horiz-adv-x="535" 
d="M184 -186h-128v822h128v-232q47 55 128 55q85 0 137 -63q53 -64 53 -171t-53 -171q-52 -64 -137 -64q-79 0 -128 55v-231zM275 77q98 0 98 147q0 148 -98 148q-51 0 -72 -40q-19 -34 -19 -108t19 -109q22 -38 72 -38z" />
    <glyph glyph-name="Lslash" unicode="&#x141;" horiz-adv-x="504" 
d="M481 0h-423v229l-48 -18v71l48 18v350h132v-305l174 67v-71l-174 -67v-179h291v-95z" />
    <glyph glyph-name="lslash" unicode="&#x142;" horiz-adv-x="240" 
d="M182 0h-124v242l-55 -23v71l55 23v337h124v-296l57 25v-72l-57 -24v-283z" />
    <glyph glyph-name="Scaron" unicode="&#x160;" horiz-adv-x="556" 
d="M515 174q0 -90 -72 -140q-66 -46 -173 -46q-139 0 -229 68l46 85q81 -53 172 -53q125 0 125 82q0 40 -38 68q-23 17 -90 45q-74 30 -131 71q-69 51 -69 131t62 128q62 47 169 47q125 0 209 -64l-47 -80q-78 46 -156 46q-107 0 -107 -76q0 -38 56.5 -66t108.5 -51
q164 -73 164 -195zM323 707h-90l-105 167h92l58 -101l58 101h92z" />
    <glyph glyph-name="scaron" unicode="&#x161;" horiz-adv-x="462" 
d="M296 271q122 -49 122 -140q0 -141 -209 -141q-97 0 -168 52l35 70q53 -39 132 -39q90 0 90 55q0 26 -38 46l-84 33q-123 49 -123 140q0 62 53 95q47 30 125 30q106 0 173 -46l-36 -69q-60 32 -122 32q-72 0 -72 -46q0 -22 38 -40q13 -6 39 -15zM276 518h-90l-105 167h92
l58 -101l58 101h92z" />
    <glyph glyph-name="Zcaron" unicode="&#x17d;" horiz-adv-x="570" 
d="M533 0h-496v83l333 471h-313v96h465v-87l-331 -468h342v-95zM330 707h-90l-105 167h92l58 -101l58 101h92z" />
    <glyph glyph-name="zcaron" unicode="&#x17e;" horiz-adv-x="469" 
d="M432 0h-395v68l244 322h-230v71h370v-60l-250 -330h261v-71zM279 518h-90l-105 167h92l58 -101l58 101h92z" />
    <glyph glyph-name="uni0E00" unicode="&#xe00;" 
 />
    <glyph glyph-name="uni0E01" unicode="&#xe01;" horiz-adv-x="594" 
d="M541 0h-124v359q0 108 -123 108q-102 0 -133 -67l80 -45v-34q-55 -17 -55 -90v-231h-123v237q0 80 57 104l-83 53q18 71 91 114q71 42 164 42q112 0 178 -47q71 -50 71 -141v-362z" />
    <glyph glyph-name="uni0E02" unicode="&#xe02;" horiz-adv-x="554" 
d="M501 155q0 -81 -63 -124q-60 -41 -164 -41t-164 41q-63 43 -63 124v104q0 50 48 95q47 45 47 66q0 37 -53 37h-49v83h102q117 0 117 -98q0 -53 -44 -99t-44 -91v-103q0 -76 103 -76t103 76v391h124v-385z" />
    <glyph glyph-name="uni0E03" unicode="&#xe03;" horiz-adv-x="567" 
d="M514 155q0 -81 -63 -124q-60 -41 -164 -41t-164 41q-63 43 -63 124v97q0 50 56 106q55 56 55 81q0 13 -4 25l-63 -47h-61v123h81v-43l57 43q98 0 98 -90q0 -51 -47 -96q-48 -45 -48 -102v-103q0 -76 103 -76t103 76v391h124v-385z" />
    <glyph glyph-name="uni0E04" unicode="&#xe04;" horiz-adv-x="586" 
d="M533 0h-124v381q0 86 -116 86t-116 -86v-130q25 37 77 37h71v-89h-82q-49 0 -66 -45v-154h-124v379q0 78 64 124q65 47 176 47q110 0 175 -46q65 -47 65 -125v-379z" />
    <glyph glyph-name="uni0E05" unicode="&#xe05;" horiz-adv-x="586" 
d="M533 0h-124v373q0 68 -44 84l-63 -59h-18l-63 59q-44 -16 -44 -84v-122q25 37 77 37h71v-89h-82q-49 0 -66 -45v-154h-124v404q0 65 51 105q49 39 124 41l64 -59l65 59q75 -2 124 -41q52 -40 52 -105v-404z" />
    <glyph glyph-name="uni0E06" unicode="&#xe06;" horiz-adv-x="597" 
d="M544 175q0 -185 -174 -185q-107 0 -184 83l-8 -73h-114v252q0 50 56 106q55 56 55 81q0 13 -4 25l-63 -47h-61v123h81v-43l57 43q98 0 98 -90q0 -51 -47 -96q-48 -45 -48 -102v-84q66 -95 136 -95q96 0 96 103v364h124v-365z" />
    <glyph glyph-name="uni0E07" unicode="&#xe07;" horiz-adv-x="565" 
d="M273 83q65 0 100 57q34 53 34 145q0 81 -31 129q-33 53 -97 53q-28 0 -59 -11l-14 81q41 13 87 13q117 0 178 -72q59 -69 59 -193q0 -126 -61 -204q-65 -81 -176 -81h-137l-143 394h117l112 -311h31z" />
    <glyph glyph-name="uni0E08" unicode="&#xe08;" horiz-adv-x="548" 
d="M239 83q151 0 151 196q0 188 -168 188q-85 0 -164 -42l-36 76q95 49 209 49q134 0 207 -67q75 -70 75 -204q0 -128 -72 -204q-72 -75 -191 -75h-104l-37 222h-62v84h154z" />
    <glyph glyph-name="uni0E09" unicode="&#xe09;" horiz-adv-x="581" 
d="M528 0h-115l-7 73q-77 -83 -173 -83q-170 0 -170 185v121h124v-118q0 -103 92 -103q70 0 125 93v175q0 66 -36 95t-117 29q-94 0 -180 -44l-28 74q101 53 226 53q118 0 185 -44q74 -49 74 -147v-359z" />
    <glyph glyph-name="uni0E0A" unicode="&#xe0a;" horiz-adv-x="554" 
d="M501 155q0 -81 -63 -124q-60 -41 -164 -41t-164 41q-63 43 -63 124v104q0 50 48 95q47 45 47 66q0 37 -53 37h-49v83h102q117 0 117 -98q0 -53 -44 -99t-44 -91v-103q0 -76 103 -76t103 76v181q0 61 -62 68v33l86 110h131l-104 -126q73 -14 73 -87v-173z" />
    <glyph glyph-name="uni0E0B" unicode="&#xe0b;" horiz-adv-x="567" 
d="M514 155q0 -81 -63 -124q-60 -41 -164 -41t-164 41q-63 43 -63 124v97q0 50 56 106q55 56 55 81q0 13 -4 25l-63 -47h-61v123h81v-43l57 43q98 0 98 -90q0 -51 -47 -96q-48 -45 -48 -102v-103q0 -76 103 -76t103 76v181q0 61 -62 68v33l86 110h131l-104 -126
q73 -14 73 -87v-173z" />
    <glyph glyph-name="uni0E0C" unicode="&#xe0c;" horiz-adv-x="903" 
d="M850 175q0 -185 -166 -185q-101 0 -160 81l-8 -71h-113v359q0 108 -118 108q-93 0 -124 -67l80 -45v-34q-55 -17 -55 -90v-104q0 -44 43 -44h44v-83h-103q-49 0 -77 27q-30 28 -30 78v132q0 80 57 104l-83 53q18 71 88 114q68 42 160 42q111 0 174 -46q67 -49 67 -141
v-198q44 -92 116 -92q85 0 85 103v364h123v-365z" />
    <glyph glyph-name="uni0E0D" unicode="&#xe0d;" horiz-adv-x="903" 
d="M850 222q0 -97 -59 -139q57 -22 57 -78q0 -63 -61 -98q-57 -32 -152 -32q-121 0 -201 43l38 70q44 -31 146 -31q110 0 110 56q0 33 -30 38q-41 -14 -87 -14q-208 0 -208 185v137q0 108 -118 108q-93 0 -124 -67l80 -45v-34q-55 -17 -55 -90v-104q0 -44 43 -44h44v-83
h-103q-49 0 -77 27q-30 28 -30 78v132q0 80 57 104l-83 53q18 71 88 114q68 42 160 42q111 0 174 -46q67 -49 67 -141v-139q0 -104 100 -104q101 0 101 104v316h123v-318z" />
    <glyph glyph-name="uni0E0E" unicode="&#xe0e;" horiz-adv-x="603" 
d="M550 -180h-120q-66 60 -124 60q-63 0 -72 -61h-96q8 64 47 101q40 37 102 37q78 0 139 -47v449q0 108 -123 108q-102 0 -133 -67l82 -45v-34q-40 -15 -40 -72v-149q0 -100 -98 -100h-92v83h31q35 0 35 42v118q0 74 43 98l-85 53q18 70 91 114q71 42 163 42q112 0 179 -47
q71 -50 71 -141v-542z" />
    <glyph glyph-name="uni0E0F" unicode="&#xe0f;" horiz-adv-x="603" 
d="M550 -180h-124l-103 46q-33 -49 -103 -49q-61 0 -105 30q1 1 29 71q31 -26 72 -26q61 0 83 68l127 -53v452q0 108 -123 108q-102 0 -133 -67l82 -45v-34q-40 -15 -40 -72v-149q0 -100 -98 -100h-92v83h31q35 0 35 42v118q0 74 43 98l-85 53q18 70 91 114q71 42 163 42
q112 0 179 -47q71 -50 71 -141v-542z" />
    <glyph glyph-name="uni0E10" unicode="&#xe10;" horiz-adv-x="548" 
d="M239 83q151 0 151 196q0 188 -168 188q-85 0 -164 -42l-36 76q95 49 209 49q40 0 74 -6l212 59v-91l-105 -19q101 -61 101 -214q0 -128 -72 -204q-72 -75 -191 -75h-104l-37 222h-62v84h154zM485 -46q6 -22 6 -42q0 -47 -32 -80q-31 -33 -85 -43l-112 50
q-33 -59 -105 -59q-66 0 -102 45l37 68q33 -30 73 -30q64 0 88 70l122 -58q20 13 20 48q0 13 -4 31h94z" />
    <glyph glyph-name="uni0E11" unicode="&#xe11;" horiz-adv-x="595" 
d="M542 0h-124v381q0 43 -11 61t-38 18q-46 0 -114 -92q-70 -96 -70 -171v-197h-123v197q0 54 55 135t55 107q0 17 -10 23l-56 -45h-61v123h80v-43l58 43q70 0 81 -61q52 71 145 71q133 0 133 -166v-384z" />
    <glyph glyph-name="uni0E12" unicode="&#xe12;" horiz-adv-x="919" 
d="M866 175q0 -185 -166 -185q-101 0 -160 81l-8 -71h-113v373q0 68 -44 84l-69 -59h-18l-69 59q-45 -16 -45 -84v-272q78 31 103 111h-50v89h145v-65q-8 -76 -63 -141q-56 -66 -139 -95h-117v378q0 77 47 124q46 46 128 48l68 -59l69 59q86 -3 132 -54q45 -51 45 -139v-187
q49 -97 115 -97q85 0 85 103v364h124v-365z" />
    <glyph glyph-name="uni0E13" unicode="&#xe13;" horiz-adv-x="910" 
d="M857 0h-114l-7 71q-60 -81 -167 -81q-166 0 -166 185v184q0 108 -118 108q-93 0 -124 -67l80 -45v-34q-55 -17 -55 -90v-104q0 -44 43 -44h44v-83h-103q-49 0 -77 27q-30 28 -30 78v132q0 80 57 104l-83 53q18 71 88 114q68 42 160 42q111 0 174 -46q67 -49 67 -141v-187
q0 -103 89 -103q77 0 119 95v372h123v-540z" />
    <glyph glyph-name="uni0E14" unicode="&#xe14;" horiz-adv-x="603" 
d="M550 0h-123v377q0 90 -125 90q-57 0 -92 -24q-36 -25 -36 -66v-276q78 31 103 111h-53v89h152v-65q-8 -76 -65 -141q-57 -66 -141 -95h-117v375q0 78 69 126q69 49 180 49q110 0 179 -48q69 -49 69 -127v-375z" />
    <glyph glyph-name="uni0E15" unicode="&#xe15;" horiz-adv-x="603" 
d="M550 0h-123v373q0 67 -46 84l-71 -59h-18l-71 59q-47 -17 -47 -84v-272q78 31 103 111h-53v89h152v-65q-8 -76 -65 -141q-57 -66 -141 -95h-117v378q0 77 48 124q48 46 129 48l70 -59l71 59q81 -2 130 -49t49 -123v-378z" />
    <glyph glyph-name="uni0E16" unicode="&#xe16;" horiz-adv-x="594" 
d="M541 0h-124v359q0 108 -123 108q-102 0 -133 -67l80 -45v-34q-55 -17 -55 -90v-104q0 -44 43 -44h44v-83h-103q-49 0 -77 27q-30 28 -30 78v132q0 80 57 104l-83 53q18 71 91 114q71 42 164 42q112 0 178 -47q71 -50 71 -141v-362z" />
    <glyph glyph-name="uni0E17" unicode="&#xe17;" horiz-adv-x="591" 
d="M538 0h-124v366q0 101 -94 101q-72 0 -138 -95v-372h-124v540h116l8 -73q77 83 184 83q172 0 172 -183v-367z" />
    <glyph glyph-name="uni0E18" unicode="&#xe18;" horiz-adv-x="555" 
d="M473 422q-80 45 -194 45q-127 0 -127 -39q0 -25 57 -42q17 -5 59 -15q44 -10 67 -16q183 -52 183 -182q0 -183 -244 -183q-106 0 -168 39t-62 107v95h124v-75q0 -83 113 -83q44 0 75 18q39 23 39 69q0 49 -56 77q-28 14 -123 38q-87 22 -124 46q-56 37 -56 101
q0 128 242 128q154 -4 232 -51z" />
    <glyph glyph-name="uni0E19" unicode="&#xe19;" horiz-adv-x="586" 
d="M533 0h-114l-8 73q-77 -83 -184 -83q-174 0 -174 185v365h124v-364q0 -103 96 -103q70 0 136 95v372h124v-540z" />
    <glyph glyph-name="uni0E1A" unicode="&#xe1a;" horiz-adv-x="588" 
d="M535 169q0 -85 -65 -132q-63 -47 -176 -47t-176 47q-65 47 -65 132v371h124v-370q0 -97 117 -97t117 97v370h124v-371z" />
    <glyph glyph-name="uni0E1B" unicode="&#xe1b;" horiz-adv-x="588" 
d="M535 169q0 -85 -65 -132q-63 -47 -176 -47t-176 47q-65 47 -65 132v371h124v-370q0 -97 117 -97t117 97v542h124v-543z" />
    <glyph glyph-name="uni0E1C" unicode="&#xe1c;" horiz-adv-x="656" 
d="M548 0h-115l-105 282l-105 -282h-115l-71 540h193v-74h-69l34 -330l90 246h86l90 -246l42 404h116z" />
    <glyph glyph-name="uni0E1D" unicode="&#xe1d;" horiz-adv-x="656" 
d="M548 0h-115l-105 282l-105 -282h-115l-71 540h193v-74h-69l34 -330l90 246h86l90 -246l62 576h116z" />
    <glyph glyph-name="uni0E1E" unicode="&#xe1e;" horiz-adv-x="694" 
d="M574 0h-116l-111 377l-111 -377h-116l-80 540h118l49 -371l98 348h84l98 -348l49 371h118z" />
    <glyph glyph-name="uni0E1F" unicode="&#xe1f;" horiz-adv-x="694" 
d="M574 0h-116l-111 377l-111 -377h-116l-80 540h118l49 -371l98 348h84l98 -348l73 543h118z" />
    <glyph glyph-name="uni0E20" unicode="&#xe20;" horiz-adv-x="603" 
d="M550 0h-124v359q0 108 -123 108q-102 0 -133 -67l82 -45v-34q-40 -15 -40 -72v-149q0 -100 -98 -100h-92v83h31q35 0 35 42v118q0 74 43 98l-85 53q18 70 91 114q71 42 163 42q112 0 179 -47q71 -50 71 -141v-362z" />
    <glyph glyph-name="uni0E21" unicode="&#xe21;" horiz-adv-x="591" 
d="M538 175q0 -185 -174 -185q-107 0 -184 83l-8 -73h-114v540h124v-372q66 -95 136 -95q96 0 96 103v364h124v-365z" />
    <glyph glyph-name="uni0E22" unicode="&#xe22;" horiz-adv-x="601" 
d="M548 162q0 -80 -67 -126t-178 -46q-254 0 -254 169q0 100 89 129v2q-83 34 -83 124q0 65 53 102q48 34 125 34q45 0 87 -11l-14 -80q-19 8 -54 8q-74 0 -74 -65q0 -73 81 -73h55v-80h-46q-95 0 -95 -86q0 -90 122 -90q129 0 129 94v373h124v-378z" />
    <glyph glyph-name="uni0E23" unicode="&#xe23;" horiz-adv-x="509" 
d="M424 429q-58 38 -156 38q-51 0 -73.5 -16.5t-22.5 -41.5q0 -40 124 -80q86 -28 125 -62q51 -44 51 -115q0 -77 -64 -120q-62 -42 -164 -42q-120 0 -209 62l35 71q74 -50 164 -50q49 0 81 21q33 20 33 53q0 34 -34 51t-114 45q-149 53 -149 157q0 68 56 109q57 41 154 41
q124 0 199 -50z" />
    <glyph glyph-name="uni0E24" unicode="&#xe24;" horiz-adv-x="594" 
d="M541 -182h-124v541q0 108 -123 108q-102 0 -133 -67l80 -45v-34q-55 -17 -55 -90v-104q0 -44 43 -44h44v-83h-103q-49 0 -77 27q-30 28 -30 78v132q0 80 57 104l-83 53q18 71 91 114q71 42 164 42q112 0 178 -47q71 -50 71 -141v-544z" />
    <glyph glyph-name="uni0E25" unicode="&#xe25;" horiz-adv-x="569" 
d="M516 0h-124v244q-127 0 -178 -20q-53 -21 -53 -76q0 -75 77 -75q22 0 43 7l18 -73q-35 -17 -93 -17q-73 0 -119 38q-50 40 -50 109q0 108 95 152q82 38 260 38v14q0 73 -29 100q-29 26 -102 26q-89 0 -161 -49l-36 78q89 54 214 54q120 0 178 -49q60 -52 60 -167v-334z
" />
    <glyph glyph-name="uni0E26" unicode="&#xe26;" horiz-adv-x="603" 
d="M550 -182h-124v541q0 108 -123 108q-102 0 -133 -67l82 -45v-34q-40 -15 -40 -72v-149q0 -100 -98 -100h-92v83h31q35 0 35 42v118q0 74 43 98l-85 53q18 71 91 114q71 42 164 42q112 0 178 -47q71 -50 71 -141v-544z" />
    <glyph glyph-name="uni0E27" unicode="&#xe27;" horiz-adv-x="505" 
d="M70 115q58 -42 129 -42q154 0 154 197t-157 197q-71 0 -131 -42l-36 76q80 49 180 49q126 0 193 -71q68 -71 68 -209q0 -280 -259 -280q-99 0 -178 48z" />
    <glyph glyph-name="uni0E28" unicode="&#xe28;" horiz-adv-x="586" 
d="M533 0h-124v381q0 86 -116 86t-116 -86v-130q25 37 77 37h71v-89h-82q-49 0 -66 -45v-154h-124v379q0 78 64 124q65 47 176 47q20 0 54 -4l201 57v-91l-85 -15q70 -38 70 -118v-379z" />
    <glyph glyph-name="uni0E29" unicode="&#xe29;" horiz-adv-x="606" 
d="M535 169q0 -85 -65 -132q-63 -47 -176 -47t-176 47q-65 47 -65 132v371h124v-370q0 -97 117 -97t117 97v95h-120v89h120v186h124v-186h46v-89h-46v-96z" />
    <glyph glyph-name="uni0E2A" unicode="&#xe2a;" horiz-adv-x="569" 
d="M516 0h-124v244q-127 0 -178 -20q-53 -21 -53 -76q0 -75 77 -75q22 0 43 7l18 -73q-35 -17 -93 -17q-73 0 -119 38q-50 40 -50 109q0 108 95 152q82 38 260 38q0 77 -23 106q-28 34 -108 34q-89 0 -161 -49l-36 78q89 54 214 54q15 0 41 -2l204 55v-85l-84 -12
q77 -40 77 -174v-332z" />
    <glyph glyph-name="uni0E2B" unicode="&#xe2b;" horiz-adv-x="593" 
d="M540 0h-124v164q0 94 -97 94h-137v-258h-124v540h124v-192h137q97 0 97 103v89h124v-105q0 -106 -90 -135q90 -18 90 -119v-181z" />
    <glyph glyph-name="uni0E2C" unicode="&#xe2c;" horiz-adv-x="689" 
d="M574 0h-116l-111 283l-111 -283h-116l-80 540h118l49 -371l98 248h84l98 -248l33 251q4 57 -80 64v43l100 104h124l-108 -115q84 -19 79 -93z" />
    <glyph glyph-name="uni0E2D" unicode="&#xe2d;" horiz-adv-x="563" 
d="M172 88q45 -15 83 -15q72 0 111 52t39 149q0 96 -52 147q-48 46 -127 46q-77 0 -153 -40l-36 76q94 47 204 47q124 0 202 -67q85 -74 85 -210q0 -283 -274 -283q-118 0 -205 36v279h207v-89h-84v-128z" />
    <glyph glyph-name="uni0E2E" unicode="&#xe2e;" horiz-adv-x="563" 
d="M172 88q45 -15 83 -15q72 0 111 52t39 149q0 96 -52 147q-48 46 -127 46q-77 0 -153 -40l-36 76q94 47 204 47q35 0 68 -6l210 59v-91l-101 -17q110 -64 110 -222q0 -283 -274 -283q-118 0 -205 36v279h207v-89h-84v-128z" />
    <glyph glyph-name="uni0E2F" unicode="&#xe2f;" horiz-adv-x="525" 
d="M472 0h-124v324q-51 -54 -139 -54q-73 0 -118 40q-47 42 -47 117v113h124v-110q0 -80 79 -80q64 0 101 67v123h124v-540z" />
    <glyph glyph-name="uni0E30" unicode="&#xe30;" horiz-adv-x="328" 
d="M273 347h-164q-71 0 -71 76v62h103v-31q0 -24 26 -24h106v-83zM273 46h-164q-71 0 -71 77v62h103v-31q0 -25 26 -25h106v-83z" />
    <glyph glyph-name="uni0E31" unicode="&#xe31;" 
d="M50 625h-312q-74 0 -74 76v69h104v-37q0 -25 26 -25h256v-83z" />
    <glyph glyph-name="uni0E32" unicode="&#xe32;" horiz-adv-x="423" 
d="M370 0h-123v375q0 92 -89 92q-64 0 -114 -40l-36 76q68 47 173 47q189 0 189 -179v-371z" />
    <glyph glyph-name="uni0E33" unicode="&#xe33;" horiz-adv-x="423" 
d="M-44 696q0 -42 -32 -68q-31 -25 -76 -25q-46 0 -76 25q-32 26 -32 68q0 43 32 70q30 26 76 26q45 0 76 -26q32 -27 32 -70zM-152 656q42 0 42 40q0 41 -42 41q-43 0 -43 -41q0 -40 43 -40zM370 0h-123v375q0 92 -89 92q-64 0 -114 -40l-36 76q68 47 173 47
q189 0 189 -179v-371z" />
    <glyph glyph-name="uni0E34" unicode="&#xe34;" 
d="M-53 625h-440v83h440v-83z" />
    <glyph glyph-name="uni0E35" unicode="&#xe35;" 
d="M-53 625h-440v83h327v68h113v-151z" />
    <glyph glyph-name="uni0E36" unicode="&#xe36;" 
d="M-203 708q0 33 22 56q23 23 59 23q38 0 61 -23q21 -23 21 -57q0 -35 -24 -59q-25 -23 -62 -23h-367v83h290zM-124 674q32 0 32 32t-32 32t-32 -32t32 -32z" />
    <glyph glyph-name="uni0E37" unicode="&#xe37;" 
d="M-53 625h-440v83h212v68h87v-68h53v68h88v-151z" />
    <glyph glyph-name="uni0E38" unicode="&#xe38;" 
d="M-53 -279h-117v91q0 31 -28 31h-43v83h93q95 0 95 -71v-134z" />
    <glyph glyph-name="uni0E39" unicode="&#xe39;" 
d="M-53 -189q0 -96 -144 -96t-144 96v36h-51v79h86q61 0 61 -46v-57q0 -39 44 -39q45 0 45 39v103h103v-115z" />
    <glyph glyph-name="uni0E3A" unicode="&#xe3a;" 
d="M-46 -131q0 -29 -19 -48q-19 -20 -49 -20t-49 20q-20 19 -20 48t20 49q19 20 49 20t49 -20q19 -19 19 -49z" />
    <glyph glyph-name="uni0E3F" unicode="&#xe3f;" horiz-adv-x="587" 
d="M318 -77h-108v77h-152v650h152v78h108v-79q204 -5 204 -161q0 -112 -105 -150v-3q127 -26 127 -151q0 -178 -226 -184v-77zM297 93q60 0 87 20q30 22 30 75q0 94 -128 94h-96v-189h107zM284 375q109 0 109 93q0 87 -103 87h-100v-180h94z" />
    <glyph glyph-name="uni0E40" unicode="&#xe40;" horiz-adv-x="274" 
d="M255 0h-97q-102 0 -102 104v436h123v-414q0 -43 41 -43h35v-83z" />
    <glyph glyph-name="uni0E41" unicode="&#xe41;" horiz-adv-x="520" 
d="M255 0h-97q-102 0 -102 104v436h123v-414q0 -43 41 -43h35v-83zM501 0h-97q-102 0 -102 104v436h123v-414q0 -43 41 -43h35v-83z" />
    <glyph glyph-name="uni0E42" unicode="&#xe42;" horiz-adv-x="309" 
d="M283 0h-97q-102 0 -102 104v476q0 112 -111 145q4 69 64 108q54 35 136 35q97 0 160 -49l-35 -73q-54 39 -123 39q-71 0 -96 -36q128 -28 128 -158v-465q0 -43 41 -43h35v-83z" />
    <glyph glyph-name="uni0E43" unicode="&#xe43;" horiz-adv-x="334" 
d="M307 0h-97q-102 0 -102 104v415q0 62 56 122q56 61 56 92q0 52 -67 52q-69 0 -80 -71h-106q17 154 195 154q175 0 175 -128q0 -43 -52 -108q-53 -65 -53 -118v-388q0 -43 40 -43h35v-83z" />
    <glyph glyph-name="uni0E44" unicode="&#xe44;" horiz-adv-x="313" 
d="M286 0h-97q-102 0 -102 104v495q0 124 109 176h-223v84h333v-92q-95 -33 -95 -167v-474q0 -43 40 -43h35v-83z" />
    <glyph glyph-name="uni0E45" unicode="&#xe45;" horiz-adv-x="423" 
d="M370 -182h-123v557q0 92 -89 92q-64 0 -114 -40l-36 76q68 47 173 47q189 0 189 -179v-553z" />
    <glyph glyph-name="uni0E46" unicode="&#xe46;" horiz-adv-x="568" 
d="M494 -146h-123v496q0 79 -41 103l-68 -62l-80 62q-42 -25 -42 -84q0 -35 18 -57q17 -22 47 -22q22 0 37 9v-68q-29 -16 -76 -16q-59 0 -94 41t-35 107q0 73 45 122q43 46 111 55l69 -54l68 54q90 -8 128 -58q36 -47 36 -146v-482z" />
    <glyph glyph-name="uni0E47" unicode="&#xe47;" 
d="M-93 613h-68l-89 44l-91 -46q-56 0 -90 27q-37 29 -37 83q0 52 34 81q34 30 97 30h265v-73h-257q-56 0 -56 -38q0 -35 38 -42l94 46l95 -44h65v-68z" />
    <glyph glyph-name="uni0E48" unicode="&#xe48;" 
d="M-53 826h-108v120h108v-120z" />
    <glyph glyph-name="uni0E49" unicode="&#xe49;" 
d="M39 826h-273v54q0 21 -20 21h-34v62h78q64 0 64 -55v-20h185v-62z" />
    <glyph glyph-name="uni0E4A" unicode="&#xe4a;" 
d="M76 826h-180v42q0 17 -13 28l-64 -56l-66 56q-13 -11 -13 -28v-42h-81v51q0 39 33 62q30 20 75 22l52 -50l53 50q89 -5 101 -75h103v-60z" />
    <glyph glyph-name="uni0E4B" unicode="&#xe4b;" 
d="M5 874h-64v-48h-96v48h-64v50h64v49h96v-49h64v-50z" />
    <glyph glyph-name="uni0E4C" unicode="&#xe4c;" 
d="M-19 834h-86q-35 0 -35 -29v-28h-100v50q0 69 100 69h121v-62z" />
    <glyph glyph-name="uni0E4D" unicode="&#xe4d;" 
d="M-44 696q0 -42 -32 -68q-31 -25 -76 -25q-46 0 -76 25q-32 26 -32 68q0 43 32 70q30 26 76 26q45 0 76 -26q32 -27 32 -70zM-110 696q0 41 -42 41q-43 0 -43 -41q0 -40 43 -40q42 0 42 40z" />
    <glyph glyph-name="uni0E4E" unicode="&#xe4e;" 
d="M-161 625h-112q-83 0 -83 65q0 57 74 69q-28 21 -28 50q0 27 22 46q24 20 61 20h139v-47h-78q-40 0 -40 -25t30 -25h25v-44h-54q-52 0 -52 -37q0 -28 39 -28h57v-44z" />
    <glyph glyph-name="uni0E4F" unicode="&#xe4f;" horiz-adv-x="578" 
d="M520 218q0 -100 -66 -163q-64 -62 -162 -62t-162 62q-66 63 -66 163t66 163q64 62 162 62t162 -62q66 -63 66 -163zM478 218q0 81 -54 133q-52 51 -132 51t-133 -51t-53 -133t53 -133t133 -51t132 51q54 52 54 133zM420 218q0 -57 -37 -92q-35 -35 -91 -35t-92 35t-36 92
t36 92t92 35t91 -35q37 -35 37 -92zM381 218q0 41 -25 65q-24 24 -64 24t-65 -24t-25 -65t25 -65t65 -24t64 24q25 24 25 65z" />
    <glyph glyph-name="uni0E50" unicode="&#xe50;" horiz-adv-x="601" 
d="M559 230q0 -107 -67 -172q-71 -68 -191 -68q-119 0 -190 68q-69 66 -69 172t68 172q70 68 191 68q119 0 190 -69q68 -66 68 -171zM447 230q0 65 -37 107q-40 44 -109 44t-109 -44q-37 -42 -37 -107q0 -70 36 -110q38 -43 110 -43t110 43q36 40 36 110z" />
    <glyph glyph-name="uni0E51" unicode="&#xe51;" horiz-adv-x="601" 
d="M349 147q-49 -25 -112 -25q-92 0 -144 44q-51 43 -51 118q0 88 71 139q70 50 186 50q120 0 191 -62q71 -64 71 -174q0 -127 -85 -201q-86 -75 -238 -75q-84 0 -114 9v81q55 -10 120 -10q97 0 152 53q54 52 54 143q0 144 -156 144q-65 0 -102 -26t-37 -71q0 -38 29 -61
q29 -22 78 -22q37 0 64 11z" />
    <glyph glyph-name="uni0E52" unicode="&#xe52;" horiz-adv-x="653" 
d="M606 0h-408q-143 0 -143 126v348q0 53 -3 90h107q4 -41 4 -92v-322q0 -65 68 -65h267v294h-117q-61 0 -61 -71q0 -64 71 -64q22 0 46 8v-78q-38 -8 -73 -8q-137 0 -137 141q0 154 137 154h242v-461z" />
    <glyph glyph-name="uni0E53" unicode="&#xe53;" horiz-adv-x="622" 
d="M563 0h-108v379l-117 -67l-104 66q-85 -23 -85 -148q0 -72 33 -116q34 -47 96 -47q28 0 52 10l16 -70q-34 -19 -104 -19q-99 0 -151 67q-50 64 -50 175q0 104 51 171q52 67 134 69l112 -80l118 71h107v-461z" />
    <glyph glyph-name="uni0E54" unicode="&#xe54;" horiz-adv-x="618" 
d="M560 0h-288q-117 0 -179 63q-59 61 -59 171t64 171q61 56 163 56h192q44 0 44 34v69h87v-98q0 -87 -111 -87h-200q-55 0 -91 -34q-40 -38 -40 -107q0 -149 158 -160q22 -1 74 -1q-87 32 -87 125q0 94 67 94h104v-66h-47q-18 0 -24 -8q-5 -7 -5 -27q0 -40 46 -80
q45 -38 87 -38h45v-77z" />
    <glyph glyph-name="uni0E55" unicode="&#xe55;" horiz-adv-x="618" 
d="M560 0h-288q-117 0 -179 63q-59 61 -59 171q0 99 53 159q49 55 136 65q-14 19 -14 45q0 74 85 74q84 0 84 -74q0 -18 -12 -42h87q44 0 44 34v69h87v-98q0 -87 -111 -87h-200q-55 0 -91 -34q-40 -38 -40 -107q0 -149 158 -160q22 -1 74 -1q-87 32 -87 125q0 94 67 94h104
v-66h-47q-18 0 -24 -8q-5 -7 -5 -27q0 -40 46 -80q45 -38 87 -38h45v-77zM294 476q32 0 32 30q0 31 -32 31t-32 -31q0 -30 32 -30z" />
    <glyph glyph-name="uni0E56" unicode="&#xe56;" horiz-adv-x="593" 
d="M170 184q6 -53 42 -83t93 -30q67 0 107 44q39 42 39 113q0 67 -38 109q-40 45 -110 45q-98 0 -151 -64h-108v156q0 65 -3 90h93q4 -31 4 -92v-69q59 70 184 70q109 0 173 -68q64 -67 64 -177q0 -112 -67 -175t-190 -63q-113 0 -177 50q-66 51 -70 144h115z" />
    <glyph glyph-name="uni0E57" unicode="&#xe57;" horiz-adv-x="784" 
d="M736 130q0 -60 -42 -95t-111 -35h-158v378l-95 -66l-92 71q-42 -7 -66 -51q-23 -41 -23 -102q0 -72 33 -116q34 -47 96 -47q28 0 52 10l16 -68q-34 -19 -104 -19q-99 0 -151 66q-50 63 -50 174q0 104 51 171q52 68 134 70l105 -72l109 62h92v-378q39 2 66 17q30 17 30 42
v357q0 40 2 65h108q-2 -26 -2 -88v-346z" />
    <glyph glyph-name="uni0E58" unicode="&#xe58;" horiz-adv-x="637" 
d="M432 0l-107 113l-104 -113h-60q-127 71 -127 234q0 110 64 171q61 56 163 56h192q44 0 44 34v69h87v-98q0 -87 -111 -87h-200q-55 0 -91 -34q-40 -38 -40 -107q0 -121 67 -146l116 113l131 -127q26 33 26 108q0 58 -23 81h89q22 -18 22 -74q0 -111 -49 -193h-89z" />
    <glyph glyph-name="uni0E59" unicode="&#xe59;" horiz-adv-x="630" 
d="M564 0h-108l-142 369h-84q-39 0 -61 -42q-20 -38 -20 -93q0 -67 32 -112q36 -49 97 -49q13 0 37 4v-80q-34 -7 -68 -7q-206 0 -206 243q0 109 51 169q50 59 139 59h155l35 -85h85v120q0 44 3 68h83q-2 -30 -2 -67v-191h-142z" />
    <glyph glyph-name="uni0E5B" unicode="&#xe5b;" horiz-adv-x="1202" 
d="M1153 191h-171q-45 0 -66 36l-21 36l-71 -144h-74l-65 123q-48 -107 -139 -169q-92 -64 -204 -64q-127 0 -210 69q-91 75 -91 208q0 107 70 179q72 74 183 74q110 0 177 -66q62 -61 69 -159h-99q-8 54 -41 90q-40 41 -106 41q-71 0 -113 -49q-38 -44 -38 -109
q0 -94 60 -144q54 -46 143 -46q100 0 182 75q77 73 112 189h79l68 -129l66 131h78l39 -64q14 -24 58 -24h125v-84z" />
    <glyph glyph-name="zerowidthnonjoiner" unicode="&#x200c;" 
 />
    <glyph glyph-name="zerowidthjoiner" unicode="&#x200d;" 
 />
    <glyph glyph-name="lefttorightmark" unicode="&#x200e;" 
 />
    <glyph glyph-name="righttoleftmark" unicode="&#x200f;" 
 />
    <glyph glyph-name="minute" unicode="&#x2032;" horiz-adv-x="220" 
d="M129 407h-63v105l9 89h89l-10 -88z" />
    <glyph glyph-name="second" unicode="&#x2033;" horiz-adv-x="373" 
d="M130 407h-64v105l9 89h90l-10 -88zM283 407h-64v105l9 89h89l-10 -88z" />
    <glyph glyph-name="uni2113" unicode="&#x2113;" horiz-adv-x="572" 
d="M474 35q-61 -45 -157 -45q-167 0 -167 134v83q-24 -6 -72 -12v64q46 6 72 15v221q0 75 40 120q39 45 101 45q144 0 144 -176q0 -180 -204 -256v-94q0 -74 97 -74q61 0 111 30zM231 299q124 63 124 184q0 111 -61 111q-63 0 -63 -110v-185z" />
    <glyph glyph-name="estimated" unicode="&#x212e;" horiz-adv-x="762" 
d="M673 120q-93 -131 -287 -131q-173 0 -270 105q-86 93 -86 231q0 136 82 223q93 100 270 100q175 0 267 -93q83 -85 83 -232v-17h-581v-155q0 -58 85 -97q73 -34 151 -34q151 0 233 100h53zM613 338v161q0 53 -71 87q-66 32 -157 32q-88 0 -158 -33q-76 -36 -76 -89v-158
h462z" />
    <glyph glyph-name="minus" unicode="&#x2212;" horiz-adv-x="572" 
d="M493 226h-414v91h414v-91z" />
    <glyph glyph-name="dottedcircle" unicode="&#x25cc;" horiz-adv-x="553" 
d="M297 513q0 -21 -20 -21t-20 21t20 21t20 -21zM205 493q0 -21 -20 -21t-20 21t20 21t20 -21zM389 493q0 -21 -20 -21t-20 21t20 21t20 -21zM131 442q0 -21 -20 -21t-20 21t20 21t20 -21zM463 442q0 -21 -20 -21t-20 21t20 21t20 -21zM83 370q0 -21 -20 -21t-20 21t20 21
t20 -21zM511 370q0 -21 -20 -21t-20 21t20 21t20 -21zM65 282q0 -21 -20 -21t-20 21t20 21t20 -21zM529 282q0 -21 -20 -21t-20 21t20 21t20 -21zM297 51q0 -21 -20 -21t-20 21t20 21t20 -21zM205 71q0 -21 -20 -21t-20 21t20 21t20 -21zM389 71q0 -21 -20 -21t-20 21t20 21
t20 -21zM131 122q0 -21 -20 -21t-20 21t20 21t20 -21zM463 122q0 -21 -20 -21t-20 21t20 21t20 -21zM83 194q0 -21 -20 -21t-20 21t20 21t20 -21zM511 194q0 -21 -20 -21t-20 21t20 21t20 -21z" />
    <glyph glyph-name="uni0E10.alt1" unicode="&#xf700;" horiz-adv-x="548" 
d="M239 83q151 0 151 196q0 188 -168 188q-85 0 -164 -42l-36 76q95 49 209 49q40 0 74 -6l212 59v-91l-105 -19q101 -61 101 -214q0 -128 -72 -204q-72 -75 -191 -75h-104l-37 222h-62v84h154z" />
    <glyph glyph-name="uni0E34.alt1" unicode="&#xf701;" 
d="M-231 625h-380v82h380v-82z" />
    <glyph glyph-name="uni0E35.alt1" unicode="&#xf702;" 
d="M-231 625h-380v82h267v69h113v-151z" />
    <glyph glyph-name="uni0E36.alt1" unicode="&#xf703;" 
d="M-302 676q32 0 32 31t-32 31t-32 -31t32 -31zM-381 707q2 38 21 58q22 23 59 23q33 0 58 -21q25 -22 25 -60q0 -35 -24 -59q-24 -23 -61 -23h-308v82h230z" />
    <glyph glyph-name="uni0E37.alt1" unicode="&#xf704;" 
d="M-231 625h-380v82h164v69h81v-69h47v69h88v-151z" />
    <glyph glyph-name="uni0E48.alt1" unicode="&#xf705;" 
d="M-246 625h-111v158h111v-158z" />
    <glyph glyph-name="uni0E49.alt1" unicode="&#xf706;" 
d="M-203 625h-266v50q0 17 -4 22t-20 5h-40v81h97q60 0 60 -63v-23h173v-72z" />
    <glyph glyph-name="uni0E4A.alt1" unicode="&#xf707;" 
d="M-162 625h-160v34q0 25 -15 35l-73 -65l-74 66q-14 -9 -14 -35v-35h-92v56q0 41 33 67q31 23 77 24l71 -67l71 67q96 -2 99 -78h77v-69z" />
    <glyph glyph-name="uni0E4B.alt1" unicode="&#xf708;" 
d="M-214 668h-71v-57h-97v57h-72v62h72v58h97v-58h71v-62z" />
    <glyph glyph-name="uni0E4C.alt1" unicode="&#xf709;" 
d="M-208 685h-100q-30 0 -30 -29v-31h-104v61q0 75 83 75h151v-76z" />
    <glyph glyph-name="uni0E48.alt2" unicode="&#xf70a;" 
d="M-51 625h-111v158h111v-158z" />
    <glyph glyph-name="uni0E49.alt2" unicode="&#xf70b;" 
d="M9 625h-303v53q0 23 -21 23h-43v82h94q63 0 63 -65v-20h210v-73z" />
    <glyph glyph-name="uni0E4A.alt2" unicode="&#xf70c;" 
d="M10 625h-202v36q0 25 -14 33l-78 -67l-81 68q-13 -8 -13 -33v-37h-92v56q0 41 33 67q30 23 76 24l77 -68l77 68q96 -2 99 -76h118v-71z" />
    <glyph glyph-name="uni0E4B.alt2" unicode="&#xf70d;" 
d="M-46 668h-71v-57h-98v57h-71v62h71v58h98v-58h71v-62z" />
    <glyph glyph-name="uni0E4C.alt2" unicode="&#xf70e;" 
d="M-16 685h-128q-30 0 -30 -29v-31h-104v61q0 75 83 75h179v-76z" />
    <glyph glyph-name="uni0E0D.alt1" unicode="&#xf70f;" horiz-adv-x="903" 
d="M850 160q0 -170 -224 -170q-223 0 -223 170v199q0 108 -118 108q-93 0 -124 -67l80 -45v-34q-55 -17 -55 -90v-104q0 -44 43 -44h44v-83h-103q-49 0 -77 27q-30 28 -30 78v132q0 80 57 104l-83 53q18 71 88 114q68 42 160 42q111 0 174 -46q67 -49 67 -141v-186
q0 -104 100 -104q101 0 101 104v363h123v-380z" />
    <glyph glyph-name="uni0E31.alt1" unicode="&#xf710;" 
d="M-31 625h-389q-76 0 -76 76v69h104v-36q0 -27 26 -27h335v-82z" />
    <glyph glyph-name="uni0E4D.alt1" unicode="&#xf711;" 
d="M-330 608q-45 0 -73 23q-31 23 -31 64t31 66q29 24 73 24t73 -24q30 -25 30 -66t-30 -64q-29 -23 -73 -23zM-330 659q37 0 37 36t-37 36q-38 0 -38 -36t38 -36z" />
    <glyph glyph-name="uni0E47.alt1" unicode="&#xf712;" 
d="M-226 613l-103 44l-93 -46q-56 0 -90 27q-37 29 -37 83q0 52 35 81q35 30 98 30h260v-73h-252q-58 0 -58 -38q0 -34 38 -41l97 45l105 -41v-71z" />
    <glyph glyph-name="uni0E48.alt3" unicode="&#xf713;" 
d="M-233 826h-108v120h108v-120z" />
    <glyph glyph-name="uni0E49.alt3" unicode="&#xf714;" 
d="M-127 826h-271v50q0 25 -23 25h-31v62h76q66 0 66 -55v-20h183v-62z" />
    <glyph glyph-name="uni0E4A.alt3" unicode="&#xf715;" 
d="M-66 826h-160v42q0 17 -13 28l-64 -56l-66 56q-13 -11 -13 -28v-42h-81v51q0 39 33 62q30 20 75 22l52 -50l53 50q89 -5 101 -75h83v-60z" />
    <glyph glyph-name="uni0E4B.alt3" unicode="&#xf716;" 
d="M-175 874h-64v-48h-96v48h-64v50h64v49h96v-49h64v-50z" />
    <glyph glyph-name="uni0E4C.alt3" unicode="&#xf717;" 
d="M-217 834h-81q-34 0 -34 -29v-28h-101v50q0 69 84 69h132v-62z" />
    <glyph glyph-name="uni0E38.alt1" unicode="&#xf718;" 
d="M-53 -387h-117v91q0 31 -28 31h-43v83h93q95 0 95 -70v-135z" />
    <glyph glyph-name="uni0E39.alt1" unicode="&#xf719;" 
d="M-53 -297q0 -96 -144 -96t-144 96v36h-51v79h86q61 0 61 -46v-57q0 -39 44 -39q45 0 45 39v103h103v-115z" />
    <glyph glyph-name="uni0E3A.alt1" unicode="&#xf71a;" 
d="M-114 -307q-30 0 -49 20q-20 19 -20 48t20 49q19 20 49 20t49 -20q19 -19 19 -49q0 -29 -19 -48q-19 -20 -49 -20z" />
    <glyph glyph-name="uni0E0E.alt1" unicode="&#xf71b;" horiz-adv-x="603" 
d="M550 -150h-120q-66 60 -124 60q-63 0 -72 -61h-96q8 64 47 101q40 37 102 37q78 0 139 -47v419q0 108 -123 108q-102 0 -133 -67l82 -45v-34q-40 -15 -40 -72v-149q0 -100 -98 -100h-92v83h31q35 0 35 42v118q0 74 43 98l-85 53q18 70 91 114q71 42 163 42q112 0 179 -47
q71 -50 71 -141v-512z" />
    <glyph glyph-name="uni0E0F.alt1" unicode="&#xf71c;" horiz-adv-x="603" 
d="M550 -150h-124l-103 46q-33 -49 -103 -49q-61 0 -105 30l29 71q31 -26 72 -26q61 0 83 68l127 -53v422q0 108 -123 108q-102 0 -133 -67l82 -45v-34q-40 -15 -40 -72v-149q0 -100 -98 -100h-92v83h31q35 0 35 42v118q0 74 43 98l-85 53q18 70 91 114q71 42 163 42
q112 0 179 -47q71 -50 71 -141v-512z" />
    <glyph glyph-name="uni0E2C.alt1" unicode="&#xf71d;" horiz-adv-x="689" 
d="M574 0h-116l-111 255l-111 -255h-116l-80 540h118l49 -378l98 211h84l98 -211l25 191q4 57 -80 64v43l100 104h124l-108 -115q84 -19 79 -93z" />
    <glyph glyph-name="PSK" horiz-adv-x="740" 
d="M685 326q0 -179 -158 -283q-79 -52 -158 -68q-78 16 -157 68q-157 104 -157 283v261q0 114 116 114h397q117 0 117 -114v-261zM546 167v224q0 84 -58 141q-58 58 -144 58t-144 -58q-57 -57 -57 -141h88q0 52 31 84q31 31 82 31q52 0 82 -31q31 -31 31 -84v-224h89z
M319 167v224h-88v-224h88z" />
    <glyph glyph-name="sfthyphen" unicode="&#xad;" horiz-adv-x="387" 
d="M337 207h-287v90h287v-90z" />
    <glyph glyph-name="nonbreakingspace" unicode="&#xa0;" horiz-adv-x="270" 
 />
    <glyph glyph-name="uni03BC" unicode="&#x3bc;" horiz-adv-x="562" 
d="M558 11q-63 -21 -101 -21q-50 0 -74 58q-44 -55 -115 -55q-60 0 -88 41v-246h-124v673h124v-293q0 -95 98 -95q68 0 103 59v329h124v-350q0 -29 24 -29q13 0 29 8v-79z" />
    <glyph glyph-name="pi" unicode="&#x3c0;" horiz-adv-x="570" 
d="M545 8q-40 -18 -95 -18q-104 0 -104 99v268h-146v-357h-124v357h-65v82h536v-82h-78v-268q0 -20 25 -20q18 0 51 12v-73z" />
    <glyph glyph-name="nonmarkingreturn" 
 />
    </font>
</defs>
</svg>
