<?xml version="1.0" standalone="no"?>
<!DOCTYPE svg PUBLIC "-//W3C//DTD SVG 1.1//EN" "http://www.w3.org/Graphics/SVG/1.1/DTD/svg11.dtd" >
<svg>
<metadata>
Created by FontForge 20090622 at Thu Aug 15 10:59:25 2019
 By deploy user
Copyright (c) 2014 by Katatrad Aksorn Co.,Ltd.. All rights reserved. This font is an exclusive license to True Digital Content &#38; Media Company Limited
</metadata>
<defs>
<font id="Anuyart-UltraLight" horiz-adv-x="0" >
  <font-face 
    font-family="Anuyart UltraLight"
    font-weight="200"
    font-stretch="normal"
    units-per-em="1000"
    panose-1="2 11 5 0 4 2 0 2 0 3"
    ascent="750"
    descent="-250"
    x-height="462"
    cap-height="650"
    bbox="-544 -342 1189 944"
    underline-thickness="30"
    underline-position="-20"
    unicode-range="U+000D-U+FB02"
  />
<missing-glyph horiz-adv-x="806" 
d="M747 0h-683v944h683v-944zM722 25v892h-633v-892h633z" />
    <glyph glyph-name="fi" unicode="fi" horiz-adv-x="446" 
d="M389 0h-30v435h-230v-435h-30v435h-69v27h69v86q0 112 99 112q50 0 84 -32l-16 -19q-26 25 -69 25q-68 0 -68 -84v-88h260v-462zM394 587h-40v63h40v-63z" />
    <glyph glyph-name="fl" unicode="fl" horiz-adv-x="446" 
d="M389 0h-30v620q-16 -8 -41 -8q-19 0 -53 11q-35 11 -60 11q-76 0 -76 -84v-88h136v-27h-136v-435h-30v435h-69v27h69v86q0 112 107 112q29 0 59 -12q31 -12 55 -12q25 0 69 17v-653z" />
    <glyph glyph-name="uni0E5A" unicode="&#xe2f;&#xe2f;" horiz-adv-x="616" 
d="M551 0h-30v398q-50 -87 -147 -87v-311h-30v398q-50 -87 -149 -87q-126 0 -126 130v99h30v-99q0 -104 96 -104q99 0 149 111v92h30v-203q96 0 147 111v92h30v-540z" />
    <glyph glyph-name="uni0E4F.liga" unicode="&#xe4f;&#x22;" horiz-adv-x="610" 
d="M540 218q0 -100 -66 -163q-64 -62 -162 -62t-162 62q-66 63 -66 163t66 163q64 62 162 62t162 -62q66 -63 66 -163zM510 218q0 87 -57 142q-56 54 -141 54t-141 -54q-57 -55 -57 -142t57 -142q56 -54 141 -54t141 54q57 55 57 142zM434 218q0 -54 -35 -88
q-34 -33 -87 -33t-87 33q-35 34 -35 88t35 88q34 33 87 33t87 -33q35 -34 35 -88zM404 218q0 42 -26 67q-25 24 -66 24t-66 -24q-26 -25 -26 -67t26 -66q25 -25 66 -25t66 25q26 24 26 66zM255 511h-16l-11 210h36zM373 511h-16l-11 210h37z" />
    <glyph glyph-name="uni0E24.liga" unicode="&#xe24;&#xe32;" horiz-adv-x="775" 
d="M710 -180h-30v580q0 124 -117 124q-75 0 -125 -39q34 -43 34 -106v-559h-30v559q0 145 -178 145q-67 0 -116 -30q-47 -29 -62 -75l84 -48v-19q-61 -16 -61 -80v-182q0 -63 62 -63h50v-27h-50q-92 0 -92 90v180q0 72 57 92l-81 45q14 66 73 105q58 38 139 38q98 0 152 -46
q61 46 145 46q146 0 146 -148v-582z" />
    <glyph glyph-name="uni0E26.liga" unicode="&#xe26;&#xe32;" horiz-adv-x="788" 
d="M723 -180h-30v580q0 124 -117 124q-75 0 -125 -39q34 -43 34 -106v-559h-30v559q0 145 -178 145q-67 0 -116 -30q-47 -29 -62 -75l89 -48v-19q-53 -14 -53 -80v-185q0 -87 -80 -87h-28v27h28q29 0 39 13q11 13 11 47v183q0 75 49 92l-86 45q14 66 73 105q58 38 139 38
q98 0 152 -46q61 46 145 46q146 0 146 -148v-582z" />
    <glyph glyph-name=".notdef" horiz-adv-x="806" 
d="M747 0h-683v944h683v-944zM722 25v892h-633v-892h633z" />
    <glyph glyph-name="space" unicode=" " horiz-adv-x="220" 
 />
    <glyph glyph-name="exclam" unicode="!" horiz-adv-x="249" 
d="M142 0h-40v59h40v-59zM133 152h-22l-5 227v271h32v-271z" />
    <glyph glyph-name="quotedbl" unicode="&#x22;" horiz-adv-x="265" 
d="M82 461h-16l-11 210h36zM200 461h-16l-11 210h37z" />
    <glyph glyph-name="numbersign" unicode="#" horiz-adv-x="581" 
d="M350 0h-27l52 219h-222l-52 -219h-27l52 219h-76v28h82l41 172h-79v28h86l49 203h27l-49 -203h222l49 203h27l-49 -203h75v-28h-81l-41 -172h78v-28h-85zM381 247l41 172h-221l-41 -172h221z" />
    <glyph glyph-name="dollar" unicode="$" horiz-adv-x="509" 
d="M276 -77h-30v67h-7q-112 0 -184 52l15 23q73 -48 169 -48q88 0 137 35t49 99q0 70 -47 110q-30 25 -119 60q-97 38 -135 69q-58 47 -58 118q0 146 180 152v68h30v-69q92 -4 157 -51l-18 -22q-70 47 -157 47q-163 0 -163 -125q0 -61 49 -100q33 -26 125 -61
q92 -36 127 -65q58 -49 58 -130q0 -69 -48 -111q-47 -42 -130 -49v-69z" />
    <glyph glyph-name="percent" unicode="%" horiz-adv-x="726" 
d="M212 0h-33l343 652h33zM175 310q106 0 106 152t-106 152t-106 -152t106 -152zM175 283q-134 0 -134 179q0 178 134 178t134 -178q0 -179 -134 -179zM552 23q106 0 106 152t-106 152t-106 -152t106 -152zM552 -4q-134 0 -134 179q0 178 134 178t134 -178q0 -179 -134 -179
z" />
    <glyph glyph-name="ampersand" unicode="&#x26;" horiz-adv-x="617" 
d="M594 0h-38l-87 89q-74 -99 -211 -99q-103 0 -156 44q-49 41 -49 114q0 110 156 209q-97 93 -97 166q0 137 137 137q129 0 132 -137q0 -82 -127 -172l210 -217q43 71 46 183h27q-2 -117 -53 -204zM231 336q-149 -88 -149 -188q0 -131 178 -131q127 0 189 93zM141 523
q0 -68 93 -150q118 77 118 150q0 110 -105 110q-106 0 -106 -110z" />
    <glyph glyph-name="quotesingle" unicode="'" horiz-adv-x="153" 
d="M85 461h-16l-11 210h37z" />
    <glyph glyph-name="parenleft" unicode="(" horiz-adv-x="334" 
d="M202 -80q-122 185 -122 389t122 389h32q-122 -186 -122 -389t122 -389h-32z" />
    <glyph glyph-name="parenright" unicode=")" horiz-adv-x="334" 
d="M100 -80q122 186 122 389t-122 389h32q122 -185 122 -389t-122 -389h-32z" />
    <glyph glyph-name="asterisk" unicode="*" horiz-adv-x="581" 
d="M422 310l-23 -16l-108 162l-108 -162l-23 16l110 157l-184 49l10 26l181 -54v180h28v-180l181 54l10 -26l-184 -49z" />
    <glyph glyph-name="plus" unicode="+" horiz-adv-x="500" 
d="M263 57h-27v203h-194v26h194v203h27v-203h194v-26h-194v-203z" />
    <glyph glyph-name="comma" unicode="," horiz-adv-x="165" 
d="M37 -129h-21l65 208h43z" />
    <glyph glyph-name="hyphen" unicode="-" horiz-adv-x="297" 
d="M247 233h-197v27h197v-27z" />
    <glyph glyph-name="period" unicode="." horiz-adv-x="165" 
d="M110 0h-55v59h55v-59z" />
    <glyph glyph-name="slash" unicode="/" horiz-adv-x="306" 
d="M42 -100h-30l258 840h32z" />
    <glyph glyph-name="zero" unicode="0" horiz-adv-x="500" 
d="M250 17q178 0 178 308t-178 308t-178 -308t178 -308zM460 325q0 -335 -210 -335t-210 335t210 335t210 -335z" />
    <glyph glyph-name="one" unicode="1" horiz-adv-x="500" 
d="M457 0h-343v28h156v591l-132 -86l-15 24l157 103h19v-632h158v-28z" />
    <glyph glyph-name="two" unicode="2" horiz-adv-x="500" 
d="M438 0h-368v68q0 71 169 222q169 150 169 221q0 122 -149 122q-90 0 -167 -50l-12 25q76 52 179 52q179 0 179 -149q0 -82 -169 -230q-169 -149 -169 -212v-41h338v-28z" />
    <glyph glyph-name="three" unicode="3" horiz-adv-x="500" 
d="M75 67q77 -50 167 -50q80 0 125 49q40 43 40 108q0 73 -43 121q-46 50 -124 50h-71v28h71q70 0 111 39q38 36 38 94q0 127 -151 127q-89 0 -163 -50l-12 25q74 52 175 52q83 0 131 -39q50 -41 50 -114q0 -58 -33 -98q-34 -41 -93 -50q66 -10 104 -64q37 -50 37 -121
q0 -76 -49 -128q-53 -56 -143 -56q-103 0 -179 52z" />
    <glyph glyph-name="four" unicode="4" horiz-adv-x="500" 
d="M394 0h-29v169h-327v36l320 455h36v-463h82v-28h-82v-169zM365 197v426l-301 -426h301z" />
    <glyph glyph-name="five" unicode="5" horiz-adv-x="500" 
d="M75 67q77 -50 154 -50q73 0 118 47q45 48 45 131q0 170 -179 170q-81 0 -133 -12l17 297h297v-28h-270l-15 -237q39 7 108 7q94 0 147 -46q58 -51 58 -150q0 -96 -51 -151q-52 -55 -142 -55t-166 52z" />
    <glyph glyph-name="six" unicode="6" horiz-adv-x="500" 
d="M402 591q-57 42 -129 42q-98 0 -147 -98q-45 -89 -45 -246q16 64 67 102q49 37 113 37q81 0 132 -58q52 -59 52 -154t-53 -160q-54 -66 -135 -66q-95 0 -147 74q-55 78 -55 225q0 371 218 371q85 0 145 -46zM257 17q67 0 113 59q45 58 45 140q0 84 -43 134
q-43 51 -115 51q-70 0 -116 -54t-46 -134q0 -81 45 -137q46 -59 117 -59z" />
    <glyph glyph-name="seven" unicode="7" horiz-adv-x="500" 
d="M143 0h-30l298 622h-350v28h380v-32z" />
    <glyph glyph-name="eight" unicode="8" horiz-adv-x="500" 
d="M449 502q0 -104 -132 -165q74 -31 105 -61q42 -41 42 -104q0 -84 -60 -134q-57 -48 -144 -48t-144 48q-60 50 -60 134q0 122 139 183q-124 47 -124 147q0 71 56 116q54 42 133 42t133 -42q56 -45 56 -116zM260 17q72 0 123 43q51 45 51 111q0 63 -50 101q-37 27 -153 70
q-145 -51 -145 -171q0 -66 51 -111q51 -43 123 -43zM101 505q0 -103 185 -154q133 54 133 154q0 55 -47 92q-46 36 -112 36t-112 -36q-47 -37 -47 -92z" />
    <glyph glyph-name="nine" unicode="9" horiz-adv-x="500" 
d="M103 65q57 -48 124 -48q192 0 192 344q-37 -130 -180 -130q-84 0 -134 55t-50 151q0 95 53 158q54 65 135 65q95 0 147 -74q55 -78 55 -225q0 -371 -218 -371q-83 0 -140 52zM243 258q70 0 116 49q46 50 46 130q0 81 -45 137q-46 59 -117 59q-68 0 -113 -57t-45 -139
q0 -83 43 -131t115 -48z" />
    <glyph glyph-name="colon" unicode=":" horiz-adv-x="165" 
d="M110 0h-55v59h55v-59zM110 411h-55v59h55v-59z" />
    <glyph glyph-name="semicolon" unicode=";" horiz-adv-x="165" 
d="M14 -177h-13l79 256h43zM110 411h-55v59h55v-59z" />
    <glyph glyph-name="less" unicode="&#x3c;" horiz-adv-x="500" 
d="M430 57l-360 212v28l360 210v-30l-328 -195l328 -195v-30z" />
    <glyph glyph-name="equal" unicode="=" horiz-adv-x="500" 
d="M435 293h-370v26h370v-26zM435 155h-370v26h370v-26z" />
    <glyph glyph-name="greater" unicode="&#x3e;" horiz-adv-x="500" 
d="M430 269l-360 -212v30l328 195l-328 195v30l360 -210v-28z" />
    <glyph glyph-name="question" unicode="?" horiz-adv-x="472" 
d="M222 128h-29v88q0 82 91 162t91 149q0 55 -39 82q-34 24 -88 24q-85 0 -156 -50l-12 25q65 52 167 52q69 0 111 -31q48 -35 48 -104q0 -78 -92 -157t-92 -159v-81zM227 0h-40v59h40v-59z" />
    <glyph glyph-name="at" unicode="@" horiz-adv-x="890" 
d="M588 -164q-77 -16 -143 -16q-154 0 -248 98q-102 105 -102 295q0 160 107 269q105 108 257 108q160 0 249 -97q87 -96 87 -264q0 -150 -54 -229h-129l-43 70q-67 -80 -146 -80q-64 0 -108 59q-45 59 -45 148q0 105 46 161q43 54 119 54q82 0 157 -30v-301l34 -57h102
q42 66 42 205q0 161 -82 248q-81 87 -232 87q-141 0 -237 -102t-96 -252q0 -172 92 -271q87 -94 230 -94q66 0 141 17zM568 365q-64 21 -129 21q-141 0 -141 -182q0 -88 37 -139q35 -50 96 -50q65 0 137 87v263z" />
    <glyph glyph-name="A" unicode="A" horiz-adv-x="584" 
d="M432 224l-140 403l-139 -403h279zM544 0h-34l-67 196h-302l-67 -196h-34l231 650h42z" />
    <glyph glyph-name="B" unicode="B" horiz-adv-x="531" 
d="M70 0v650h193q194 0 194 -160q0 -60 -33 -104q-33 -43 -85 -56q137 -21 137 -156q0 -174 -198 -174h-208zM277 28q84 0 125 32q43 35 43 114q0 72 -45 106q-46 36 -150 36h-149v-288h176zM250 344q85 0 131 39q47 38 47 108q0 131 -162 131h-165v-278h149z" />
    <glyph glyph-name="C" unicode="C" horiz-adv-x="571" 
d="M516 31q-73 -41 -174 -41q-132 0 -211 94q-76 91 -76 241q0 149 77 241q79 94 208 94q95 0 167 -39l-15 -24q-61 36 -152 36q-116 0 -186 -86q-70 -84 -70 -222t70 -222q70 -86 188 -86q98 0 160 38z" />
    <glyph glyph-name="D" unicode="D" horiz-adv-x="576" 
d="M70 0v650h176q275 0 275 -325t-275 -325h-176zM245 30q130 0 189 72q56 70 56 223q0 151 -56 222q-60 75 -192 75h-141v-592h144z" />
    <glyph glyph-name="E" unicode="E" horiz-adv-x="499" 
d="M444 0h-374v650h374v-28h-343v-280h279v-28h-279v-286h343v-28z" />
    <glyph glyph-name="F" unicode="F" horiz-adv-x="464" 
d="M101 0h-31v650h374v-28h-343v-280h279v-28h-279v-314z" />
    <glyph glyph-name="G" unicode="G" horiz-adv-x="599" 
d="M544 48q-79 -58 -204 -58q-131 0 -209 94q-76 91 -76 241q0 149 77 241q79 94 208 94q95 0 167 -39l-15 -25q-60 37 -152 37q-116 0 -186 -86q-70 -84 -70 -222t70 -222q70 -86 186 -86q106 0 173 44v234h-196v28h227v-275z" />
    <glyph glyph-name="H" unicode="H" horiz-adv-x="588" 
d="M518 0h-30v309h-388v-309h-30v650h30v-313h388v313h30v-650z" />
    <glyph glyph-name="I" unicode="I" horiz-adv-x="170" 
d="M100 0h-30v650h30v-650z" />
    <glyph glyph-name="J" unicode="J" horiz-adv-x="370" 
d="M305 158q0 -90 -36 -129t-117 -39q-73 0 -132 38l14 25q52 -35 118 -35q68 0 96 33q26 30 26 100v499h31v-492z" />
    <glyph glyph-name="K" unicode="K" horiz-adv-x="543" 
d="M101 0h-31v650h31v-650zM488 0h-38l-293 341l279 309h39l-280 -309z" />
    <glyph glyph-name="L" unicode="L" horiz-adv-x="464" 
d="M444 0h-374v650h31v-622h343v-28z" />
    <glyph glyph-name="M" unicode="M" horiz-adv-x="678" 
d="M608 0h-30v625l-229 -564h-20l-229 564v-625h-30v650h52l217 -542l217 542h52v-650z" />
    <glyph glyph-name="N" unicode="N" horiz-adv-x="580" 
d="M510 0h-35l-374 611v-611h-31v650h41l368 -604v604h31v-650z" />
    <glyph glyph-name="O" unicode="O" horiz-adv-x="640" 
d="M320 17q127 0 187 102q47 79 47 206t-47 206q-60 102 -187 102t-187 -102q-47 -79 -47 -206t47 -206q60 -102 187 -102zM515 78q-70 -88 -195 -88t-195 88t-70 247t70 247t195 88t195 -88t70 -247t-70 -247z" />
    <glyph glyph-name="P" unicode="P" horiz-adv-x="494" 
d="M248 282q181 0 181 172q0 168 -183 168h-145v-340h147zM101 0h-31v650h176q213 0 213 -196q0 -200 -213 -200h-145v-254z" />
    <glyph glyph-name="Q" unicode="Q" horiz-adv-x="640" 
d="M545 -72l-221 62h-4q-126 0 -196 89q-69 88 -69 246q0 159 70 247t195 88t195 -88t70 -247q0 -139 -54 -224t-153 -105l167 -31v-37zM320 17q127 0 187 102q47 79 47 206t-47 206q-60 102 -187 102t-187 -102q-47 -79 -47 -206t47 -206q60 -102 187 -102z" />
    <glyph glyph-name="R" unicode="R" horiz-adv-x="527" 
d="M482 0h-33l-64 193q-17 52 -43 72q-30 23 -90 23h-151v-288h-31v650h200q187 0 187 -173q0 -143 -123 -180q56 -19 81 -96zM273 316q71 0 112 41q43 42 43 120q0 145 -158 145h-169v-306h172z" />
    <glyph glyph-name="S" unicode="S" horiz-adv-x="509" 
d="M70 65q73 -48 169 -48q88 0 137 35t49 99q0 70 -47 110q-30 25 -119 60q-94 37 -135 71q-58 48 -58 116q0 71 48 111q50 41 144 41q103 0 175 -52l-18 -22q-70 47 -157 47q-163 0 -163 -125q0 -57 49 -97q37 -30 125 -64q92 -36 127 -65q58 -49 58 -130q0 -77 -58 -120
q-57 -42 -157 -42q-112 0 -184 52z" />
    <glyph glyph-name="T" unicode="T" horiz-adv-x="497" 
d="M264 0h-31v622h-213v28h457v-28h-213v-622z" />
    <glyph glyph-name="U" unicode="U" horiz-adv-x="580" 
d="M515 202q0 -104 -60 -159q-59 -53 -165 -53t-165 53q-60 55 -60 159v448h31v-449q0 -184 194 -184t194 184v449h31v-448z" />
    <glyph glyph-name="V" unicode="V" horiz-adv-x="594" 
d="M318 0h-42l-231 650h34l218 -622l218 622h34z" />
    <glyph glyph-name="W" unicode="W" horiz-adv-x="792" 
d="M601 0h-36l-169 597l-169 -597h-36l-146 650h33l132 -615l170 601h32l170 -601l132 615h33z" />
    <glyph glyph-name="X" unicode="X" horiz-adv-x="556" 
d="M516 0h-34l-204 302l-204 -302h-34l221 330l-213 320h34l196 -296l196 296h34l-213 -320z" />
    <glyph glyph-name="Y" unicode="Y" horiz-adv-x="550" 
d="M290 0h-30v235l-220 415h34l201 -388l201 388h34l-220 -415v-235z" />
    <glyph glyph-name="Z" unicode="Z" horiz-adv-x="545" 
d="M490 0h-435v28l393 594h-364v28h397v-28l-393 -594h402v-28z" />
    <glyph glyph-name="bracketleft" unicode="[" horiz-adv-x="336" 
d="M277 -59h-181v784h181v-27h-152v-730h152v-27z" />
    <glyph glyph-name="backslash" unicode="\" horiz-adv-x="268" 
d="M282 -100h-31l-260 840h31z" />
    <glyph glyph-name="bracketright" unicode="]" horiz-adv-x="336" 
d="M240 -59h-181v27h152v730h-152v27h181v-784z" />
    <glyph glyph-name="asciicircum" unicode="^" horiz-adv-x="528" 
d="M477 341h-31l-176 299l-174 -300h-33l198 327h20z" />
    <glyph glyph-name="underscore" unicode="_" horiz-adv-x="383" 
d="M383 -76h-383v26h383v-26z" />
    <glyph glyph-name="grave" unicode="`" horiz-adv-x="200" 
d="M157 508h-28l-87 114h48z" />
    <glyph glyph-name="a" unicode="a" horiz-adv-x="459" 
d="M394 0h-23l-7 76q-47 -86 -167 -86q-62 0 -102 34q-40 35 -40 91q0 86 72 120q68 33 237 33v68q0 110 -125 110q-73 0 -137 -37l-14 23q65 40 151 40q155 0 155 -139v-333zM364 242q-159 0 -220 -27q-61 -28 -61 -100q0 -45 32 -72t83 -27q76 0 121 41t45 111v74z" />
    <glyph glyph-name="b" unicode="b" horiz-adv-x="499" 
d="M93 0h-23v650h30v-249q59 71 151 71q91 0 142 -61q51 -62 51 -177q0 -118 -56 -183q-53 -61 -142 -61q-99 0 -149 84zM100 110q44 -94 140 -94q176 0 176 218q0 212 -166 212q-97 0 -150 -81v-255z" />
    <glyph glyph-name="c" unicode="c" horiz-adv-x="459" 
d="M404 29q-56 -39 -139 -39q-97 0 -153 65q-57 66 -57 176t57 176q56 65 153 65q77 0 132 -38l-15 -23q-47 35 -117 35q-82 0 -132 -58q-50 -59 -50 -157q0 -99 49 -157q48 -58 133 -58q80 0 126 36z" />
    <glyph glyph-name="d" unicode="d" horiz-adv-x="499" 
d="M429 0h-23l-4 74q-51 -84 -149 -84q-90 0 -142 58q-56 62 -56 180q0 115 51 180q51 64 142 64q102 0 151 -71v249h30v-650zM399 365q-50 81 -150 81q-80 0 -123 -58q-43 -56 -43 -160q0 -212 176 -212q94 0 140 94v255z" />
    <glyph glyph-name="e" unicode="e" horiz-adv-x="497" 
d="M414 260q-1 79 -38 129q-43 57 -122 57q-150 0 -170 -186h330zM415 30q-62 -40 -137 -40q-106 0 -165 67q-58 65 -58 177q0 111 55 175q53 63 143 63q92 0 141 -62q48 -62 48 -177h-359q0 -103 51 -160q52 -57 144 -57q70 0 123 38z" />
    <glyph glyph-name="f" unicode="f" horiz-adv-x="322" 
d="M144 0h-30v435h-69v27h69v86q0 112 99 112q50 0 84 -32l-16 -19q-26 25 -69 25q-68 0 -68 -84v-88h136v-27h-136v-435z" />
    <glyph glyph-name="g" unicode="g" horiz-adv-x="499" 
d="M429 9q0 -197 -187 -197q-73 0 -132 38l14 23q52 -35 118 -35q81 0 119 40q38 41 38 131v48q-50 -67 -151 -67q-91 0 -142 64q-51 65 -51 180q0 118 56 180q52 58 142 58q106 0 149 -81l4 71h23v-453zM399 355q-40 91 -140 91q-176 0 -176 -212q0 -104 43 -160
q43 -58 123 -58q103 0 150 77v262z" />
    <glyph glyph-name="h" unicode="h" horiz-adv-x="475" 
d="M410 0h-30v336q0 110 -110 110q-96 0 -170 -83v-363h-30v650h30v-254q75 76 177 76q133 0 133 -135v-337z" />
    <glyph glyph-name="i" unicode="i" horiz-adv-x="180" 
d="M105 0h-30v462h30v-462zM110 587h-40v63h40v-63z" />
    <glyph glyph-name="j" unicode="j" horiz-adv-x="269" 
d="M194 -64q0 -118 -97 -118q-57 0 -87 33l18 19q27 -27 70 -27q66 0 66 91v528h30v-526zM199 587h-40v63h40v-63z" />
    <glyph glyph-name="k" unicode="k" horiz-adv-x="432" 
d="M100 0h-30v650h30v-650zM392 0h-37l-209 244l190 218h38l-190 -218z" />
    <glyph glyph-name="l" unicode="l" horiz-adv-x="170" 
d="M100 0h-30v650h30v-650z" />
    <glyph glyph-name="m" unicode="m" horiz-adv-x="698" 
d="M633 0h-29v330q0 116 -109 116q-82 0 -132 -60q10 -30 10 -67v-319h-28v317q0 129 -109 129q-78 0 -137 -79v-367h-29v462h25l4 -62q51 72 144 72q77 0 110 -62q51 62 150 62q61 0 97 -39q33 -37 33 -97v-336z" />
    <glyph glyph-name="n" unicode="n" horiz-adv-x="475" 
d="M410 0h-30v336q0 110 -110 110q-96 0 -170 -83v-363h-30v462h26l4 -66q75 76 177 76q133 0 133 -135v-337z" />
    <glyph glyph-name="o" unicode="o" horiz-adv-x="510" 
d="M255 16q83 0 128 60q44 58 44 155t-44 155q-45 60 -128 60t-128 -60q-44 -58 -44 -155t44 -155q45 -60 128 -60zM255 -10q-94 0 -148 67q-52 64 -52 174t52 175q54 66 148 66t148 -66q52 -65 52 -175t-52 -174q-54 -67 -148 -67z" />
    <glyph glyph-name="p" unicode="p" horiz-adv-x="499" 
d="M100 -188h-30v650h23l4 -74q53 84 151 84q90 0 141 -57q55 -61 55 -179q0 -115 -52 -181q-52 -65 -143 -65q-95 0 -149 71v-249zM100 97q52 -81 148 -81q80 0 125 59q43 57 43 161q0 210 -174 210q-98 0 -142 -94v-255z" />
    <glyph glyph-name="q" unicode="q" horiz-adv-x="499" 
d="M429 -188h-30v249q-51 -71 -149 -71q-91 0 -143 65t-52 180q0 118 55 180q52 57 141 57q102 0 151 -84l4 74h23v-650zM399 352q-40 94 -142 94q-174 0 -174 -211q0 -103 44 -161t124 -58q97 0 148 81v255z" />
    <glyph glyph-name="r" unicode="r" horiz-adv-x="299" 
d="M100 0h-30v462h26l4 -75q67 85 174 85v-26q-107 0 -174 -95v-351z" />
    <glyph glyph-name="s" unicode="s" horiz-adv-x="421" 
d="M70 59q57 -43 130 -43q138 0 138 96q0 48 -42 79q-25 18 -92 45t-92 46q-42 33 -42 82q0 108 141 108q81 0 135 -40l-18 -22q-48 36 -117 36q-113 0 -113 -82q0 -40 42 -68q20 -13 92 -42q64 -26 92 -50q42 -36 42 -91q0 -59 -44 -91t-123 -32q-85 0 -144 46z" />
    <glyph glyph-name="t" unicode="t" horiz-adv-x="361" 
d="M336 28q-41 -38 -105 -38q-109 0 -109 129v316h-77v27h77l4 107h26v-107h157v-27h-157v-318q0 -56 19 -79t60 -23q55 0 88 32z" />
    <glyph glyph-name="u" unicode="u" horiz-adv-x="475" 
d="M405 0h-26l-4 66q-58 -76 -153 -76q-68 0 -111 36q-46 38 -46 107v329h30v-329q0 -117 132 -117q92 0 148 83v363h30v-462z" />
    <glyph glyph-name="v" unicode="v" horiz-adv-x="470" 
d="M250 0h-30l-175 462h32l158 -428l158 428h32z" />
    <glyph glyph-name="w" unicode="w" horiz-adv-x="626" 
d="M460 0h-30l-117 419l-117 -419h-30l-121 462h31l106 -423l115 409h32l115 -409l106 423h31z" />
    <glyph glyph-name="x" unicode="x" horiz-adv-x="452" 
d="M407 0h-34l-147 208l-147 -208h-34l165 231l-164 231h34l146 -208l146 208h34l-164 -231z" />
    <glyph glyph-name="y" unicode="y" horiz-adv-x="480" 
d="M184 -180h-30l69 183l-178 459h32l162 -424l164 424h32z" />
    <glyph glyph-name="z" unicode="z" horiz-adv-x="428" 
d="M373 0h-318v26l282 409h-263v27h294v-26l-282 -409h287v-27z" />
    <glyph glyph-name="braceleft" unicode="{" horiz-adv-x="343" 
d="M283 -105h-24q-62 0 -62 66v194q0 65 -39 109q-38 43 -97 47v38q59 4 97 47q39 44 39 109v194q0 66 62 66h24v-24h-18q-39 0 -39 -49v-185q0 -130 -124 -177q124 -47 124 -177v-185q0 -49 39 -49h18v-24z" />
    <glyph glyph-name="bar" unicode="|" horiz-adv-x="229" 
d="M129 -147h-29v868h29v-868z" />
    <glyph glyph-name="braceright" unicode="}" horiz-adv-x="343" 
d="M146 -39q0 -66 -62 -66h-24v24h18q39 0 39 49v185q0 130 124 177q-124 47 -124 177v185q0 49 -39 49h-18v24h24q62 0 62 -66v-194q0 -65 39 -109q38 -43 97 -47v-38q-59 -4 -97 -47q-39 -44 -39 -109v-194z" />
    <glyph glyph-name="asciitilde" unicode="~" horiz-adv-x="619" 
d="M569 430q-3 -101 -39 -155q-34 -52 -94 -52q-48 0 -125 91q-78 91 -125 91q-49 0 -78 -48t-32 -134h-26q1 94 38 151q37 56 97 56q63 0 139 -90q77 -91 112 -91q98 0 107 181h26z" />
    <glyph glyph-name="exclamdown" unicode="&#xa1;" horiz-adv-x="249" 
d="M142 404h-40v59h40v-59zM138 -187h-32v271l5 227h22l5 -227v-271z" />
    <glyph glyph-name="cent" unicode="&#xa2;" horiz-adv-x="459" 
d="M404 29q-51 -36 -128 -39v-67h-30v68q-89 7 -140 71t-51 169q0 104 51 169q52 64 140 71v67h30v-66q69 -3 121 -38l-15 -23q-47 35 -117 35q-82 0 -132 -58q-50 -59 -50 -157q0 -99 49 -157q48 -58 133 -58q80 0 126 36z" />
    <glyph glyph-name="sterling" unicode="&#xa3;" horiz-adv-x="450" 
d="M405 10q-42 -24 -73 -24q-28 0 -78 21q-51 20 -78 20q-73 0 -108 -22l-14 26q102 70 102 193q0 30 -15 68h-79v26h68q-49 110 -49 144q0 73 46 118q44 43 112 43q132 0 154 -148h-32q-18 120 -122 120q-55 0 -90 -35t-35 -94q0 -41 48 -148h173v-26h-163q15 -38 15 -68
q0 -97 -81 -181q29 11 67 11q31 0 81 -20t82 -20q26 0 69 25v-29z" />
    <glyph glyph-name="yen" unicode="&#xa5;" horiz-adv-x="500" 
d="M267 0h-30v149h-144v22h144v111h-144v22h132l-207 346h36l199 -338l194 338h35l-204 -346h133v-22h-144v-111h144v-22h-144v-149z" />
    <glyph glyph-name="section" unicode="&#xa7;" horiz-adv-x="530" 
d="M72 -157q77 -50 172 -50q84 0 136 45q50 44 50 108q0 74 -57 119q-36 29 -126 62q-94 34 -126 56q-57 41 -57 106q0 75 63 114q-63 43 -63 110q0 69 54 108t150 39q103 0 179 -52l-12 -25q-77 50 -167 50q-174 0 -174 -119q0 -56 57 -92q26 -16 127 -53q87 -33 126 -67
q57 -50 57 -131q0 -65 -40 -110q40 -45 40 -114q0 -80 -59 -130q-60 -51 -158 -51q-108 0 -184 52zM207 171q164 -66 192 -89q31 39 31 88q0 94 -97 144q-28 15 -89 37q-63 23 -89 36q-61 -30 -61 -97q0 -74 113 -119z" />
    <glyph glyph-name="dieresis" unicode="&#xa8;" horiz-adv-x="200" 
d="M41 510h-46v64h46v-64zM206 510h-46v64h46v-64z" />
    <glyph glyph-name="copyright" unicode="&#xa9;" horiz-adv-x="737" 
d="M519 228q-35 -98 -147 -98q-77 0 -124 52q-48 52 -48 141t48 142q47 51 124 51q112 0 147 -98h-29q-30 74 -118 74q-68 0 -106 -47q-38 -45 -38 -122t38 -122q38 -47 106 -47q88 0 118 74h29zM369 3q-142 0 -232 91q-91 90 -91 232t91 233q90 91 232 91t233 -91t91 -233
t-91 -232q-91 -91 -233 -91zM369 35q128 0 210 82t82 209q0 128 -82 210t-210 82q-127 0 -209 -82t-82 -210q0 -127 82 -209t209 -82z" />
    <glyph glyph-name="ordfeminine" unicode="&#xaa;" horiz-adv-x="312" 
d="M258 362h-23l-5 47q-35 -54 -104 -54q-38 0 -62 22q-24 23 -24 59q0 53 39 75q42 24 150 24v42q0 59 -72 59q-52 0 -84 -25l-14 22q41 27 96 27q103 0 103 -90v-208zM229 512q-84 0 -120 -15q-41 -18 -41 -61q0 -57 61 -57q45 0 73 29q27 26 27 64v40z" />
    <glyph glyph-name="guillemotleft" unicode="&#xab;" horiz-adv-x="312" 
d="M175 32h-29l-96 188l96 188h29l-93 -188zM262 32h-29l-96 188l96 188h29l-93 -188z" />
    <glyph glyph-name="logicalnot" unicode="&#xac;" horiz-adv-x="458" 
d="M423 127h-30v120h-358v27h388v-147z" />
    <glyph glyph-name="registered" unicode="&#xae;" horiz-adv-x="378" 
d="M265 396h-24l-17 57q-9 24 -39 24h-40v-81h-21v197h81q58 0 58 -55q0 -50 -42 -53q14 -4 25 -30zM203 497q36 0 36 41q0 35 -35 35h-59v-76h58zM189 355q63 0 99 38q35 37 35 99t-35 99q-36 38 -99 38t-99 -38q-35 -37 -35 -99t35 -99q36 -38 99 -38zM189 334
q-77 0 -120 46q-39 43 -39 112t39 112q43 46 120 46t120 -46q39 -43 39 -112t-39 -112q-43 -46 -120 -46z" />
    <glyph glyph-name="macron" unicode="&#xaf;" horiz-adv-x="300" 
d="M300 710h-300v27h300v-27z" />
    <glyph glyph-name="degree" unicode="&#xb0;" horiz-adv-x="267" 
d="M134 552q29 0 49 20q20 21 20 49q0 29 -20 49t-49 20q-28 0 -49 -20q-20 -20 -20 -49q0 -28 20 -49q21 -20 49 -20zM134 529q-39 0 -66 26q-28 27 -28 66t28 66q27 26 66 26t66 -26q27 -27 27 -66t-27 -66q-27 -26 -66 -26z" />
    <glyph glyph-name="plusminus" unicode="&#xb1;" horiz-adv-x="500" 
d="M457 290h-194v-173h-27v173h-194v26h194v173h27v-173h194v-26zM457 44h-415v26h415v-26z" />
    <glyph glyph-name="acute" unicode="&#xb4;" horiz-adv-x="300" 
d="M120 508h-28l67 114h48z" />
    <glyph glyph-name="mu" unicode="&#xb5;" horiz-adv-x="453" 
d="M451 1q-21 -10 -40 -10q-36 0 -36 57v18q-58 -76 -153 -76q-91 0 -127 62v-232h-30v642h30v-316q0 -60 36 -95q35 -35 96 -35q92 0 148 83v363h30v-414q0 -31 21 -31q11 0 25 9v-25z" />
    <glyph glyph-name="paragraph" unicode="&#xb6;" horiz-adv-x="436" 
d="M396 -36h-23v659h-95v-659h-26v346q-219 3 -219 170q0 170 201 170h162v-686z" />
    <glyph glyph-name="periodcentered" unicode="&#xb7;" horiz-adv-x="214" 
d="M107 241q-45 0 -45 44t45 44t45 -44t-45 -44z" />
    <glyph glyph-name="cedilla" unicode="&#xb8;" horiz-adv-x="300" 
d="M63 -158q30 -13 64 -13q78 0 78 52q0 48 -102 48l21 79h29l-14 -53q95 0 95 -74q0 -80 -102 -80q-36 0 -79 17z" />
    <glyph glyph-name="ordmasculine" unicode="&#xba;" horiz-adv-x="290" 
d="M145 386q93 0 93 125t-93 125t-93 -125t93 -125zM145 362q-123 0 -123 149t123 149t123 -149t-123 -149z" />
    <glyph glyph-name="guillemotright" unicode="&#xbb;" horiz-adv-x="312" 
d="M166 32h-29l93 188l-93 188h29l96 -188zM79 32h-29l93 188l-93 188h29l96 -188z" />
    <glyph glyph-name="questiondown" unicode="&#xbf;" horiz-adv-x="472" 
d="M406 -146q-65 -52 -167 -52q-69 0 -111 31q-48 35 -48 104q0 85 92 161q92 77 92 155v81h29v-88q0 -82 -91 -163q-91 -80 -91 -148q0 -55 39 -82q34 -24 88 -24q85 0 156 50zM298 403h-40v59h40v-59z" />
    <glyph glyph-name="Agrave" unicode="&#xc0;" horiz-adv-x="584" 
d="M432 224l-140 403l-139 -403h279zM544 0h-34l-67 196h-302l-67 -196h-34l231 650h42zM307 696h-28l-87 114h48z" />
    <glyph glyph-name="Aacute" unicode="&#xc1;" horiz-adv-x="584" 
d="M432 224l-140 403l-139 -403h279zM544 0h-34l-67 196h-302l-67 -196h-34l231 650h42zM309 696h-28l67 114h48z" />
    <glyph glyph-name="Acircumflex" unicode="&#xc2;" horiz-adv-x="584" 
d="M432 224l-140 403l-139 -403h279zM544 0h-34l-67 196h-302l-67 -196h-34l231 650h42zM386 698h-29l-65 92l-65 -92h-29l80 113h28z" />
    <glyph glyph-name="Atilde" unicode="&#xc3;" horiz-adv-x="584" 
d="M432 224l-140 403l-139 -403h279zM544 0h-34l-67 196h-302l-67 -196h-34l231 650h42zM416 746q-32 -48 -64 -48q-17 0 -57 24q-40 23 -62 23q-28 0 -48 -43l-17 13q24 53 66 53q24 0 65 -22q40 -23 53 -23q21 0 47 36z" />
    <glyph glyph-name="Adieresis" unicode="&#xc4;" horiz-adv-x="584" 
d="M432 224l-140 403l-139 -403h279zM544 0h-34l-67 196h-302l-67 -196h-34l231 650h42zM232 698h-46v64h46v-64zM397 698h-46v64h46v-64z" />
    <glyph glyph-name="Aring" unicode="&#xc5;" horiz-adv-x="584" 
d="M432 224l-140 403l-139 -403h279zM544 0h-34l-67 196h-302l-67 -196h-34l231 650h42zM292 716q25 0 42 17t17 42t-17 42t-42 17t-42 -17t-17 -42t17 -42t42 -17zM377 775q0 -36 -25 -60q-24 -24 -60 -24t-60 24q-25 24 -25 60t25 60q24 24 60 24t60 -24q25 -24 25 -60z
" />
    <glyph glyph-name="AE" unicode="&#xc6;" horiz-adv-x="750" 
d="M710 0h-354v194h-220l-85 -194h-34l289 650h404v-28h-323v-279h300v-30h-300v-285h323v-28zM356 224v403h-29l-178 -403h207z" />
    <glyph glyph-name="Ccedilla" unicode="&#xc7;" horiz-adv-x="571" 
d="M516 31q-69 -39 -171 -41l-11 -43q95 0 95 -74q0 -80 -102 -80q-36 0 -79 17l10 24q30 -13 64 -13q78 0 78 52q0 48 -102 48l18 70q-122 9 -192 101q-69 90 -69 233q0 149 77 241q79 94 208 94q95 0 167 -39l-15 -24q-61 36 -152 36q-116 0 -186 -86q-70 -84 -70 -222
t70 -222q70 -86 188 -86q98 0 160 38z" />
    <glyph glyph-name="Egrave" unicode="&#xc8;" horiz-adv-x="499" 
d="M444 0h-374v650h374v-28h-343v-280h279v-28h-279v-286h343v-28zM304 696h-28l-87 114h48z" />
    <glyph glyph-name="Eacute" unicode="&#xc9;" horiz-adv-x="499" 
d="M444 0h-374v650h374v-28h-343v-280h279v-28h-279v-286h343v-28zM217 696h-28l67 114h48z" />
    <glyph glyph-name="Ecircumflex" unicode="&#xca;" horiz-adv-x="499" 
d="M444 0h-374v650h374v-28h-343v-280h279v-28h-279v-286h343v-28zM343 698h-29l-65 92l-65 -92h-29l80 113h28z" />
    <glyph glyph-name="Edieresis" unicode="&#xcb;" horiz-adv-x="499" 
d="M444 0h-374v650h374v-28h-343v-280h279v-28h-279v-286h343v-28zM190 698h-46v64h46v-64zM355 698h-46v64h46v-64z" />
    <glyph glyph-name="Igrave" unicode="&#xcc;" horiz-adv-x="170" 
d="M100 0h-30v650h30v-650zM107 696h-28l-87 114h48z" />
    <glyph glyph-name="Iacute" unicode="&#xcd;" horiz-adv-x="170" 
d="M100 0h-30v650h30v-650zM95 696h-28l67 114h48z" />
    <glyph glyph-name="Icircumflex" unicode="&#xce;" horiz-adv-x="170" 
d="M100 0h-30v650h30v-650zM184 698h-29l-65 92l-65 -92h-29l80 113h28z" />
    <glyph glyph-name="Idieresis" unicode="&#xcf;" horiz-adv-x="170" 
d="M100 0h-30v650h30v-650zM26 698h-46v64h46v-64zM191 698h-46v64h46v-64z" />
    <glyph glyph-name="Ntilde" unicode="&#xd1;" horiz-adv-x="580" 
d="M510 0h-35l-374 611v-611h-31v650h41l368 -604v604h31v-650zM414 746q-32 -48 -64 -48q-17 0 -57 24q-40 23 -62 23q-28 0 -48 -43l-17 13q24 53 66 53q24 0 65 -22q40 -23 53 -23q21 0 47 36z" />
    <glyph glyph-name="Ograve" unicode="&#xd2;" horiz-adv-x="640" 
d="M320 17q127 0 187 102q47 79 47 206t-47 206q-60 102 -187 102t-187 -102q-47 -79 -47 -206t47 -206q60 -102 187 -102zM515 78q-70 -88 -195 -88t-195 88t-70 247t70 247t195 88t195 -88t70 -247t-70 -247zM375 696h-28l-87 114h48z" />
    <glyph glyph-name="Oacute" unicode="&#xd3;" horiz-adv-x="640" 
d="M320 17q127 0 187 102q47 79 47 206t-47 206q-60 102 -187 102t-187 -102q-47 -79 -47 -206t47 -206q60 -102 187 -102zM320 -10q-125 0 -195 88t-70 247t70 247t195 88t195 -88t70 -247t-70 -247t-195 -88zM288 696h-28l67 114h48z" />
    <glyph glyph-name="Ocircumflex" unicode="&#xd4;" horiz-adv-x="640" 
d="M320 17q127 0 187 102q47 79 47 206t-47 206q-60 102 -187 102t-187 -102q-47 -79 -47 -206t47 -206q60 -102 187 -102zM515 78q-70 -88 -195 -88t-195 88t-70 247t70 247t195 88t195 -88t70 -247t-70 -247zM414 698h-29l-65 92l-65 -92h-29l80 113h28z" />
    <glyph glyph-name="Otilde" unicode="&#xd5;" horiz-adv-x="640" 
d="M320 17q127 0 187 102q47 79 47 206t-47 206q-60 102 -187 102t-187 -102q-47 -79 -47 -206t47 -206q60 -102 187 -102zM320 -10q-125 0 -195 88t-70 247t70 247t195 88t195 -88t70 -247t-70 -247t-195 -88zM444 746q-32 -48 -64 -48q-17 0 -57 24q-40 23 -62 23
q-28 0 -48 -43l-17 13q24 53 66 53q24 0 65 -22q40 -23 53 -23q21 0 47 36z" />
    <glyph glyph-name="Odieresis" unicode="&#xd6;" horiz-adv-x="640" 
d="M320 17q127 0 187 102q47 79 47 206t-47 206q-60 102 -187 102t-187 -102q-47 -79 -47 -206t47 -206q60 -102 187 -102zM515 78q-70 -88 -195 -88t-195 88t-70 247t70 247t195 88t195 -88t70 -247t-70 -247zM260 698h-46v64h46v-64zM425 698h-46v64h46v-64z" />
    <glyph glyph-name="Oslash" unicode="&#xd8;" horiz-adv-x="640" 
d="M175 -83h-30l43 106q-133 78 -133 302q0 159 70 247t195 88q65 0 117 -26l26 64h32l-32 -78q122 -81 122 -295q0 -159 -70 -247t-195 -88q-58 0 -107 20zM427 609q-46 24 -107 24q-127 0 -187 -102q-47 -79 -47 -206q0 -205 113 -276zM224 35q41 -18 96 -18
q127 0 187 102q47 79 47 206q0 191 -102 268z" />
    <glyph glyph-name="Ugrave" unicode="&#xd9;" horiz-adv-x="580" 
d="M515 202q0 -104 -60 -159q-59 -53 -165 -53t-165 53q-60 55 -60 159v448h31v-449q0 -184 194 -184t194 184v449h31v-448zM345 696h-28l-87 114h48z" />
    <glyph glyph-name="Uacute" unicode="&#xda;" horiz-adv-x="580" 
d="M258 696h-28l67 114h48zM515 202q0 -104 -60 -159q-59 -53 -165 -53t-165 53q-60 55 -60 159v448h31v-449q0 -184 194 -184t194 184v449h31v-448z" />
    <glyph glyph-name="Ucircumflex" unicode="&#xdb;" horiz-adv-x="580" 
d="M515 202q0 -104 -60 -159q-59 -53 -165 -53t-165 53q-60 55 -60 159v448h31v-449q0 -184 194 -184t194 184v449h31v-448zM384 698h-29l-65 92l-65 -92h-29l80 113h28z" />
    <glyph glyph-name="Udieresis" unicode="&#xdc;" horiz-adv-x="580" 
d="M230 698h-46v64h46v-64zM395 698h-46v64h46v-64zM515 202q0 -104 -60 -159q-59 -53 -165 -53t-165 53q-60 55 -60 159v448h31v-449q0 -184 194 -184t194 184v449h31v-448z" />
    <glyph glyph-name="uni00DF" unicode="&#xdf;" horiz-adv-x="510" 
d="M35 -211q21 48 21 114v525q0 232 197 232q80 0 125 -39t45 -109q0 -49 -51 -98q-52 -49 -52 -78q0 -32 77 -90q76 -58 76 -115q0 -69 -42 -105q-41 -36 -114 -36q-110 0 -150 92l25 15q32 -81 124 -81q129 0 129 114q0 50 -76 105q-77 55 -77 101q0 39 52 87q51 48 51 88
q0 123 -146 123q-163 0 -163 -200v-531q0 -76 -25 -125z" />
    <glyph glyph-name="agrave" unicode="&#xe0;" horiz-adv-x="459" 
d="M394 0h-23l-7 76q-47 -86 -167 -86q-62 0 -102 34q-40 35 -40 91q0 86 72 120q68 33 237 33v68q0 110 -125 110q-73 0 -137 -37l-14 23q65 40 151 40q155 0 155 -139v-333zM364 242q-159 0 -220 -27q-61 -28 -61 -100q0 -45 32 -72t83 -27q76 0 121 41t45 111v74z
M284 508h-28l-87 114h48z" />
    <glyph glyph-name="aacute" unicode="&#xe1;" horiz-adv-x="459" 
d="M394 0h-23l-7 76q-47 -86 -167 -86q-62 0 -102 34q-40 35 -40 91q0 86 72 120q68 33 237 33v68q0 110 -125 110q-73 0 -137 -37l-14 23q65 40 151 40q155 0 155 -139v-333zM364 242q-159 0 -220 -27q-61 -28 -61 -100q0 -45 32 -72t83 -27q76 0 121 41t45 111v74z
M197 508h-28l67 114h48z" />
    <glyph glyph-name="acircumflex" unicode="&#xe2;" horiz-adv-x="459" 
d="M394 0h-23l-7 76q-47 -86 -167 -86q-62 0 -102 34q-40 35 -40 91q0 86 72 120q68 33 237 33v68q0 110 -125 110q-73 0 -137 -37l-14 23q65 40 151 40q155 0 155 -139v-333zM364 242q-159 0 -220 -27q-61 -28 -61 -100q0 -45 32 -72t83 -27q76 0 121 41t45 111v74z
M323 510h-29l-65 92l-65 -92h-29l80 113h28z" />
    <glyph glyph-name="atilde" unicode="&#xe3;" horiz-adv-x="459" 
d="M394 0h-23l-7 76q-47 -86 -167 -86q-62 0 -102 34q-40 35 -40 91q0 86 72 120q68 33 237 33v68q0 110 -125 110q-73 0 -137 -37l-14 23q65 40 151 40q155 0 155 -139v-333zM364 242q-159 0 -220 -27q-61 -28 -61 -100q0 -45 32 -72t83 -27q76 0 121 41t45 111v74z
M353 558q-32 -48 -64 -48q-17 0 -57 24q-40 23 -62 23q-28 0 -48 -43l-17 13q24 53 66 53q24 0 65 -22q40 -23 53 -23q21 0 47 36z" />
    <glyph glyph-name="adieresis" unicode="&#xe4;" horiz-adv-x="459" 
d="M394 0h-23l-7 76q-47 -86 -167 -86q-62 0 -102 34q-40 35 -40 91q0 86 72 120q68 33 237 33v68q0 110 -125 110q-73 0 -137 -37l-14 23q65 40 151 40q155 0 155 -139v-333zM364 242q-159 0 -220 -27q-61 -28 -61 -100q0 -45 32 -72t83 -27q76 0 121 41t45 111v74z
M170 510h-46v64h46v-64zM335 510h-46v64h46v-64z" />
    <glyph glyph-name="aring" unicode="&#xe5;" horiz-adv-x="459" 
d="M394 0h-23l-7 76q-47 -86 -167 -86q-62 0 -102 34q-40 35 -40 91q0 86 72 120q68 33 237 33v68q0 110 -125 110q-73 0 -137 -37l-14 23q65 40 151 40q155 0 155 -139v-333zM364 242q-159 0 -220 -27q-61 -28 -61 -100q0 -45 32 -72t83 -27q76 0 121 41t45 111v74z
M229 528q25 0 42 17t17 42t-17 42t-42 17t-42 -17t-17 -42t17 -42t42 -17zM229 503q-36 0 -60 24q-25 24 -25 60t25 60q24 24 60 24t60 -24q25 -24 25 -60t-25 -60q-24 -24 -60 -24z" />
    <glyph glyph-name="ae" unicode="&#xe6;" horiz-adv-x="763" 
d="M681 30q-62 -40 -137 -40q-122 0 -180 85q-46 -85 -167 -85q-62 0 -102 34q-40 35 -40 91q0 79 68 113q62 30 199 31q7 76 34 123q-22 64 -117 64q-73 0 -137 -37l-14 23q65 40 151 40q103 0 137 -62q54 62 143 62q92 0 141 -62q48 -62 48 -177h-359q0 -103 51 -160
q52 -57 144 -57q70 0 123 38zM680 260q-1 79 -38 129q-43 57 -122 57q-150 0 -170 -186h330zM198 16q113 0 151 83q-28 56 -28 135q-114 0 -169 -22q-69 -28 -69 -97q0 -45 32 -72t83 -27z" />
    <glyph glyph-name="ccedilla" unicode="&#xe7;" horiz-adv-x="459" 
d="M404 29q-54 -38 -136 -39l-12 -46q95 0 95 -74q0 -80 -102 -80q-36 0 -79 17l10 24q30 -13 64 -13q78 0 78 52q0 48 -102 48l19 73q-85 8 -135 73q-49 64 -49 167q0 110 57 176q56 65 153 65q77 0 132 -38l-15 -23q-47 35 -117 35q-82 0 -132 -58q-50 -59 -50 -157
q0 -99 49 -157q48 -58 133 -58q80 0 126 36z" />
    <glyph glyph-name="egrave" unicode="&#xe8;" horiz-adv-x="497" 
d="M414 260q-1 79 -38 129q-43 57 -122 57q-150 0 -170 -186h330zM415 30q-62 -40 -137 -40q-106 0 -165 67q-58 65 -58 177q0 111 55 175q53 63 143 63q92 0 141 -62q48 -62 48 -177h-359q0 -103 51 -160q52 -57 144 -57q70 0 123 38zM303 508h-28l-87 114h48z" />
    <glyph glyph-name="eacute" unicode="&#xe9;" horiz-adv-x="497" 
d="M414 260q-1 79 -38 129q-43 57 -122 57q-150 0 -170 -186h330zM415 30q-62 -40 -137 -40q-106 0 -165 67q-58 65 -58 177q0 111 55 175q53 63 143 63q92 0 141 -62q48 -62 48 -177h-359q0 -103 51 -160q52 -57 144 -57q70 0 123 38zM216 508h-28l67 114h48z" />
    <glyph glyph-name="ecircumflex" unicode="&#xea;" horiz-adv-x="497" 
d="M414 260q-1 79 -38 129q-43 57 -122 57q-150 0 -170 -186h330zM415 30q-62 -40 -137 -40q-106 0 -165 67q-58 65 -58 177q0 111 55 175q53 63 143 63q92 0 141 -62q48 -62 48 -177h-359q0 -103 51 -160q52 -57 144 -57q70 0 123 38zM342 510h-29l-65 92l-65 -92h-29
l80 113h28z" />
    <glyph glyph-name="edieresis" unicode="&#xeb;" horiz-adv-x="497" 
d="M414 260q-1 79 -38 129q-43 57 -122 57q-150 0 -170 -186h330zM415 30q-62 -40 -137 -40q-106 0 -165 67q-58 65 -58 177q0 111 55 175q53 63 143 63q92 0 141 -62q48 -62 48 -177h-359q0 -103 51 -160q52 -57 144 -57q70 0 123 38zM189 510h-46v64h46v-64zM354 510h-46
v64h46v-64z" />
    <glyph glyph-name="igrave" unicode="&#xec;" horiz-adv-x="180" 
d="M105 0h-30v462h30v-462zM110 508h-28l-87 114h48z" />
    <glyph glyph-name="iacute" unicode="&#xed;" horiz-adv-x="180" 
d="M105 0h-30v462h30v-462zM96 508h-28l67 114h48z" />
    <glyph glyph-name="icircumflex" unicode="&#xee;" horiz-adv-x="180" 
d="M105 0h-30v462h30v-462zM189 510h-29l-65 92l-65 -92h-29l80 113h28z" />
    <glyph glyph-name="idieresis" unicode="&#xef;" horiz-adv-x="180" 
d="M105 0h-30v462h30v-462zM31 510h-46v64h46v-64zM196 510h-46v64h46v-64z" />
    <glyph glyph-name="ntilde" unicode="&#xf1;" horiz-adv-x="475" 
d="M410 0h-30v336q0 110 -110 110q-96 0 -170 -83v-363h-30v462h26l4 -66q75 76 177 76q133 0 133 -135v-337zM361 558q-32 -48 -64 -48q-17 0 -57 24q-40 23 -62 23q-28 0 -48 -43l-17 13q24 53 66 53q24 0 65 -22q40 -23 53 -23q21 0 47 36z" />
    <glyph glyph-name="ograve" unicode="&#xf2;" horiz-adv-x="510" 
d="M255 16q83 0 128 60q44 58 44 155t-44 155q-45 60 -128 60t-128 -60q-44 -58 -44 -155t44 -155q45 -60 128 -60zM255 -10q-94 0 -148 67q-52 64 -52 174t52 175q54 66 148 66t148 -66q52 -65 52 -175t-52 -174q-54 -67 -148 -67zM310 508h-28l-87 114h48z" />
    <glyph glyph-name="oacute" unicode="&#xf3;" horiz-adv-x="510" 
d="M255 16q83 0 128 60q44 58 44 155t-44 155q-45 60 -128 60t-128 -60q-44 -58 -44 -155t44 -155q45 -60 128 -60zM255 -10q-94 0 -148 67q-52 64 -52 174t52 175q54 66 148 66t148 -66q52 -65 52 -175t-52 -174q-54 -67 -148 -67zM223 508h-28l67 114h48z" />
    <glyph glyph-name="ocircumflex" unicode="&#xf4;" horiz-adv-x="510" 
d="M255 16q83 0 128 60q44 58 44 155t-44 155q-45 60 -128 60t-128 -60q-44 -58 -44 -155t44 -155q45 -60 128 -60zM255 -10q-94 0 -148 67q-52 64 -52 174t52 175q54 66 148 66t148 -66q52 -65 52 -175t-52 -174q-54 -67 -148 -67zM349 510h-29l-65 92l-65 -92h-29l80 113
h28z" />
    <glyph glyph-name="otilde" unicode="&#xf5;" horiz-adv-x="510" 
d="M255 16q83 0 128 60q44 58 44 155t-44 155q-45 60 -128 60t-128 -60q-44 -58 -44 -155t44 -155q45 -60 128 -60zM255 -10q-94 0 -148 67q-52 64 -52 174t52 175q54 66 148 66t148 -66q52 -65 52 -175t-52 -174q-54 -67 -148 -67zM379 558q-32 -48 -64 -48q-17 0 -57 24
q-40 23 -62 23q-28 0 -48 -43l-17 13q24 53 66 53q24 0 65 -22q40 -23 53 -23q21 0 47 36z" />
    <glyph glyph-name="odieresis" unicode="&#xf6;" horiz-adv-x="510" 
d="M255 16q83 0 128 60q44 58 44 155t-44 155q-45 60 -128 60t-128 -60q-44 -58 -44 -155t44 -155q45 -60 128 -60zM255 -10q-94 0 -148 67q-52 64 -52 174t52 175q54 66 148 66t148 -66q52 -65 52 -175t-52 -174q-54 -67 -148 -67zM195 510h-46v64h46v-64zM360 510h-46v64
h46v-64z" />
    <glyph glyph-name="divide" unicode="&#xf7;" horiz-adv-x="500" 
d="M273 120h-55v59h55v-59zM273 366h-55v59h55v-59zM437 260h-375v26h375v-26z" />
    <glyph glyph-name="oslash" unicode="&#xf8;" horiz-adv-x="474" 
d="M120 -63h-30l36 89q-82 64 -82 200q0 107 54 172q54 64 140 64q34 0 61 -10l28 69h32l-33 -81q106 -57 106 -214q0 -107 -54 -172q-54 -64 -140 -64q-46 0 -88 21zM160 36q34 -20 78 -20q76 0 121 60q43 57 43 150q0 138 -87 189zM289 427q-24 9 -51 9q-76 0 -121 -60
q-43 -57 -43 -150q0 -116 63 -173z" />
    <glyph glyph-name="ugrave" unicode="&#xf9;" horiz-adv-x="475" 
d="M405 0h-26l-4 66q-58 -76 -153 -76q-68 0 -111 36q-46 38 -46 107v329h30v-329q0 -117 132 -117q92 0 148 83v363h30v-462zM292 508h-28l-87 114h48z" />
    <glyph glyph-name="uacute" unicode="&#xfa;" horiz-adv-x="475" 
d="M405 0h-26l-4 66q-58 -76 -153 -76q-68 0 -111 36q-46 38 -46 107v329h30v-329q0 -117 132 -117q92 0 148 83v363h30v-462zM205 508h-28l67 114h48z" />
    <glyph glyph-name="ucircumflex" unicode="&#xfb;" horiz-adv-x="475" 
d="M405 0h-26l-4 66q-58 -76 -153 -76q-68 0 -111 36q-46 38 -46 107v329h30v-329q0 -117 132 -117q92 0 148 83v363h30v-462zM331 510h-29l-65 92l-65 -92h-29l80 113h28z" />
    <glyph glyph-name="udieresis" unicode="&#xfc;" horiz-adv-x="475" 
d="M405 0h-26l-4 66q-58 -76 -153 -76q-68 0 -111 36q-46 38 -46 107v329h30v-329q0 -117 132 -117q92 0 148 83v363h30v-462zM178 510h-46v64h46v-64zM343 510h-46v64h46v-64z" />
    <glyph glyph-name="ydieresis" unicode="&#xff;" horiz-adv-x="480" 
d="M184 -180h-30l69 183l-178 459h32l162 -424l164 424h32zM180 510h-46v64h46v-64zM345 510h-46v64h46v-64z" />
    <glyph glyph-name="dotlessi" unicode="&#x131;" horiz-adv-x="180" 
d="M105 0h-30v462h30v-462z" />
    <glyph glyph-name="OE" unicode="&#x152;" horiz-adv-x="932" 
d="M892 0h-374v102q-61 -112 -207 -112q-125 0 -195 88t-70 247t70 247t195 88q149 0 207 -112v102h374v-28h-343v-249h320v-28h-320v-317h343v-28zM518 488q-55 145 -207 145q-127 0 -187 -102q-47 -79 -47 -206t47 -206q60 -102 187 -102q152 0 207 142v329z" />
    <glyph glyph-name="oe" unicode="&#x153;" horiz-adv-x="759" 
d="M692 28q-59 -38 -132 -38q-114 0 -173 76q-53 -76 -149 -76q-86 0 -140 64q-54 65 -54 172t54 172q54 64 140 64q90 0 143 -68q53 78 151 78q87 0 135 -58q49 -60 49 -172h-347q0 -107 48 -165q49 -61 143 -61q63 0 118 37zM238 16q86 0 132 77q-31 60 -31 141
q0 77 26 132q-45 70 -127 70q-76 0 -121 -60q-43 -57 -43 -150t43 -150q45 -60 121 -60zM683 269q-1 76 -38 125q-41 52 -112 52q-143 0 -163 -177h313z" />
    <glyph glyph-name="Ydieresis" unicode="&#x178;" horiz-adv-x="549" 
d="M290 0h-30v235l-220 415h34l201 -388l201 388h34l-220 -415v-235zM215 698h-46v64h46v-64zM380 698h-46v64h46v-64z" />
    <glyph glyph-name="florin" unicode="&#x192;" horiz-adv-x="282" 
d="M71 -10q-17 -80 -96 -80q-35 0 -59 17l12 20q21 -15 46 -15q55 0 67 57l84 406h-75q2 6 5 27h77l12 62q23 120 120 120q20 0 50 -8l-7 -22q-17 7 -45 7q-68 -1 -88 -92l-14 -67h78l-8 -27h-75z" />
    <glyph glyph-name="circumflex" unicode="&#x2c6;" horiz-adv-x="417" 
d="M302 510h-29l-65 92l-65 -92h-29l80 113h28z" />
    <glyph glyph-name="caron" unicode="&#x2c7;" horiz-adv-x="300" 
d="M164 510h-28l-80 140h35l59 -109l59 109h35z" />
    <glyph glyph-name="breve" unicode="&#x2d8;" horiz-adv-x="300" 
d="M271 610q-20 -103 -121 -103t-121 103h30q17 -77 91 -77t91 77h30z" />
    <glyph glyph-name="dotaccent" unicode="&#x2d9;" horiz-adv-x="300" 
d="M173 510h-46v64h46v-64z" />
    <glyph glyph-name="ring" unicode="&#x2da;" horiz-adv-x="300" 
d="M150 528q25 0 42 17t17 42t-17 42t-42 17t-42 -17t-17 -42t17 -42t42 -17zM150 503q-36 0 -60 24q-25 24 -25 60t25 60q24 24 60 24t60 -24q25 -24 25 -60t-25 -60q-24 -24 -60 -24z" />
    <glyph glyph-name="ogonek" unicode="&#x2db;" horiz-adv-x="300" 
d="M238 -171q-45 -21 -89 -21q-88 0 -88 89q0 47 22 107h25q-20 -51 -20 -96q0 -77 64 -77q38 0 86 24v-26z" />
    <glyph glyph-name="tilde" unicode="&#x2dc;" horiz-adv-x="300" 
d="M274 558q-32 -48 -64 -48q-17 0 -57 24q-40 23 -62 23q-28 0 -48 -43l-17 13q24 53 66 53q24 0 65 -22q40 -23 53 -23q21 0 47 36z" />
    <glyph glyph-name="hungarumlaut" unicode="&#x2dd;" horiz-adv-x="300" 
d="M79 508h-28l67 114h48zM162 508h-28l67 114h48z" />
    <glyph glyph-name="endash" unicode="&#x2013;" horiz-adv-x="457" 
d="M407 233h-357v27h357v-27z" />
    <glyph glyph-name="emdash" unicode="&#x2014;" horiz-adv-x="634" 
d="M584 233h-534v27h534v-27z" />
    <glyph glyph-name="quoteleft" unicode="&#x2018;" horiz-adv-x="218" 
d="M98 462h-43l87 208h21z" />
    <glyph glyph-name="quoteright" unicode="&#x2019;" horiz-adv-x="218" 
d="M76 462h-21l65 208h43z" />
    <glyph glyph-name="quotesinglbase" unicode="&#x201a;" horiz-adv-x="218" 
d="M76 -130h-21l65 208h43z" />
    <glyph glyph-name="quotedblleft" unicode="&#x201c;" horiz-adv-x="318" 
d="M198 462h-43l87 208h21zM98 462h-43l87 208h21z" />
    <glyph glyph-name="quotedblright" unicode="&#x201d;" horiz-adv-x="318" 
d="M76 462h-21l65 208h43zM176 462h-21l65 208h43z" />
    <glyph glyph-name="quotedblbase" unicode="&#x201e;" horiz-adv-x="318" 
d="M76 -130h-21l65 208h43zM176 -130h-21l65 208h43z" />
    <glyph glyph-name="dagger" unicode="&#x2020;" horiz-adv-x="464" 
d="M248 0h-30v530h-142v24h142v196h30v-196h140v-24h-140v-530z" />
    <glyph glyph-name="daggerdbl" unicode="&#x2021;" horiz-adv-x="464" 
d="M248 0h-30v219h-142v24h142v287h-142v24h142v196h30v-196h140v-24h-140v-287h140v-24h-140v-219z" />
    <glyph glyph-name="bullet" unicode="&#x2022;" horiz-adv-x="370" 
d="M290 272q0 -46 -30 -76q-29 -31 -75 -31t-75 31q-30 30 -30 76t30 76q29 31 75 31t75 -31q30 -30 30 -76z" />
    <glyph glyph-name="ellipsis" unicode="&#x2026;" horiz-adv-x="475" 
d="M110 0h-55v59h55v-59zM265 0h-55v59h55v-59zM420 0h-55v59h55v-59z" />
    <glyph glyph-name="perthousand" unicode="&#x2030;" horiz-adv-x="1056" 
d="M212 0h-33l343 652h33zM175 310q106 0 106 152t-106 152t-106 -152t106 -152zM175 283q-134 0 -134 179q0 178 134 178t134 -178q0 -179 -134 -179zM552 23q106 0 106 152t-106 152t-106 -152t106 -152zM552 -4q-134 0 -134 179q0 178 134 178t134 -178q0 -179 -134 -179
zM882 23q106 0 106 152t-106 152t-106 -152t106 -152zM882 -4q-134 0 -134 179q0 178 134 178t134 -178q0 -179 -134 -179z" />
    <glyph glyph-name="guilsinglleft" unicode="&#x2039;" horiz-adv-x="255" 
d="M205 32h-29l-126 188l126 188h29l-123 -188z" />
    <glyph glyph-name="guilsinglright" unicode="&#x203a;" horiz-adv-x="255" 
d="M79 32h-29l123 188l-123 188h29l126 -188z" />
    <glyph glyph-name="fraction" unicode="&#x2044;" horiz-adv-x="144" 
d="M-33 0h-33l255 616h31z" />
    <glyph glyph-name="Euro" unicode="&#x20ac;" horiz-adv-x="478" 
d="M466 29q-73 -38 -157 -38q-213 0 -256 221h-43l9 28h29q-4 29 -4 69q0 37 4 65h-38l9 28h33q20 105 84 164q68 61 173 61q86 0 157 -37l-15 -24q-61 36 -142 36q-187 0 -227 -200h308l-11 -28h-302q-4 -28 -4 -65q0 -40 4 -69h248l-11 -28h-232q42 -196 227 -196
q79 0 142 36z" />
    <glyph glyph-name="trademark" unicode="&#x2122;" horiz-adv-x="618" 
d="M157 368h-26v257h-91v25h205v-25h-88v-257zM567 368h-27v258l-95 -188h-26l-95 188v-258h-27v282h39l96 -189l96 189h39v-282z" />
    <glyph glyph-name="Ohm" unicode="&#x2126;" horiz-adv-x="646" 
d="M596 0h-198v119q155 77 155 248q0 100 -59 162q-62 66 -171 66t-171 -66q-59 -62 -59 -162q0 -171 155 -248v-119h-198v29h168v76q-155 89 -155 261q0 124 74 191q69 63 186 63t186 -63q74 -67 74 -191q0 -172 -155 -261v-76h168v-29z" />
    <glyph glyph-name="partialdiff" unicode="&#x2202;" horiz-adv-x="500" 
d="M129 508q46 121 144 121q65 0 102 -59q39 -62 39 -178q0 -192 -64 -300q-62 -102 -164 -102q-55 0 -90 34q-42 40 -42 120q0 88 81 159q95 83 256 84q0 221 -118 221q-82 0 -123 -116zM187 12q94 0 150 107q52 98 54 247q-133 0 -223 -65q-89 -64 -89 -158q0 -72 40 -106
q29 -25 68 -25z" />
    <glyph glyph-name="Delta" unicode="&#x2206;" horiz-adv-x="608" 
d="M564 25l-260 576l-260 -576h520zM603 0h-598l299 658z" />
    <glyph glyph-name="product" unicode="&#x220f;" horiz-adv-x="530" 
d="M460 -143h-30v730h-330v-730h-30v758h390v-758z" />
    <glyph glyph-name="summation" unicode="&#x2211;" horiz-adv-x="525" 
d="M455 -143h-385v22l293 357l-293 357v22h385v-28h-341l280 -342v-18l-280 -342h341v-28z" />
    <glyph glyph-name="radical" unicode="&#x221a;" horiz-adv-x="477" 
d="M240 14h-27l-98 302h-80v24h101l92 -289l211 564h29z" />
    <glyph glyph-name="infinity" unicode="&#x221e;" horiz-adv-x="854" 
d="M338 216q51 40 78 90q-95 119 -185 119q-63 0 -98 -39q-31 -34 -31 -81q0 -53 30 -91q36 -43 99 -43q50 0 107 45zM756 294q0 53 -30 91q-36 43 -99 43q-50 0 -107 -45q-51 -40 -78 -90q95 -119 185 -119q63 0 98 39q31 34 31 81zM626 449q68 0 112 -42q44 -44 44 -115
q0 -57 -39 -97q-44 -45 -115 -45q-94 0 -204 134q-90 -134 -192 -134q-68 0 -112 43t-44 114q0 57 40 97q43 45 114 45q94 0 204 -134q90 134 192 134z" />
    <glyph glyph-name="integral" unicode="&#x222b;" horiz-adv-x="335" 
d="M119 -14q-20 -130 -117 -130q-25 0 -52 7l6 24q13 -5 31 -5q44 0 66 19q27 23 37 85l82 508q10 62 34 87q25 25 78 25q20 0 43 -4l-6 -24q-17 4 -35 4q-44 0 -63 -23q-17 -19 -24 -67z" />
    <glyph glyph-name="approxequal" unicode="&#x2248;" horiz-adv-x="500" 
d="M430 329q-38 -37 -83 -37q-16 0 -91 29q-76 29 -96 29q-47 0 -90 -51v31q43 43 95 43q23 0 94 -27q71 -28 90 -28q36 0 81 40v-29zM430 175q-38 -37 -83 -37q-16 0 -91 29q-76 29 -96 29q-47 0 -90 -51v31q43 43 95 43q23 0 94 -27q71 -28 90 -28q36 0 81 40v-29z" />
    <glyph glyph-name="notequal" unicode="&#x2260;" horiz-adv-x="500" 
d="M435 155h-205l-50 -122h-30l49 122h-134v26h145l45 112h-190v26h201l43 105h32l-43 -105h137v-26h-148l-46 -112h194v-26z" />
    <glyph glyph-name="lessequal" unicode="&#x2264;" horiz-adv-x="500" 
d="M430 97l-360 192v28l360 190v-30l-328 -175l328 -175v-30zM430 34h-360v26h360v-26z" />
    <glyph glyph-name="greaterequal" unicode="&#x2265;" horiz-adv-x="500" 
d="M430 289l-360 -192v30l328 175l-328 175v30l360 -190v-28zM430 34h-360v26h360v-26z" />
    <glyph glyph-name="lozenge" unicode="&#x25ca;" horiz-adv-x="534" 
d="M267 32l175 273l-175 273l-175 -273zM279 3h-24l-194 302l194 302h24l194 -302z" />
    <glyph glyph-name="uni0E33.alt1" horiz-adv-x="381" 
d="M316 0h-30v400q0 124 -117 124q-78 0 -130 -43l-14 23q61 46 145 46q146 0 146 -148v-402zM-280 608q-33 0 -56 23t-23 56q0 34 23 57t56 23q34 0 57 -23t23 -57q0 -33 -23 -56t-57 -23zM-280 634q23 0 39 15q15 15 15 38t-15 39q-16 15 -39 15t-38 -15q-15 -16 -15 -39
q0 -22 15 -38q16 -15 38 -15z" />
    <glyph glyph-name=".null" 
 />
    <glyph glyph-name=".null" 
 />
    <glyph glyph-name="nonmarkingreturn" unicode="&#xd;" horiz-adv-x="220" 
 />
    <glyph glyph-name="uni0E4E.alt1" 
d="M-244 631h-35q-71 0 -71 60q0 58 72 66q-24 13 -24 45q0 23 18 39q19 17 49 17h68v-23h-63q-47 0 -47 -36t33 -36h18v-23h-22q-75 0 -75 -50q0 -35 47 -35h32v-24z" />
    <glyph glyph-name="currency" unicode="&#xa4;" horiz-adv-x="426" 
d="M213 80q-60 0 -99 36l-23 -23l-17 17l24 24q-28 37 -28 90q0 58 34 97l-30 31l17 17l30 -31q38 30 92 30q50 0 89 -29l30 30l17 -17l-29 -29q36 -39 36 -99q0 -52 -29 -91l22 -23l-17 -17l-22 22q-38 -35 -97 -35zM213 106q52 0 84 33q33 33 33 85t-33 85q-32 33 -84 33
t-84 -33q-33 -33 -33 -85t33 -85q32 -33 84 -33z" />
    <glyph glyph-name="brokenbar" unicode="&#xa6;" horiz-adv-x="229" 
d="M129 348h-29v373h29v-373zM129 -147h-29v386h29v-386z" />
    <glyph glyph-name="twosuperior" unicode="&#xb2;" horiz-adv-x="244" 
d="M225 362h-201v50q0 36 87 87t87 82q0 55 -73 55q-45 0 -88 -29l-11 22q40 31 99 31q100 0 100 -79q0 -45 -87 -97q-88 -51 -88 -79v-19h175v-24z" />
    <glyph glyph-name="threesuperior" unicode="&#xb3;" horiz-adv-x="244" 
d="M34 412q45 -29 88 -29q79 0 79 62q0 32 -22 52q-22 18 -58 18h-45v23h45q73 0 73 52q0 46 -74 46q-48 0 -86 -28l-11 23q41 29 97 29q101 0 101 -69q0 -51 -54 -65q61 -16 61 -81q0 -86 -106 -86q-57 0 -99 30z" />
    <glyph glyph-name="onesuperior" unicode="&#xb9;" horiz-adv-x="244" 
d="M223 362h-191v24h82v238l-65 -41l-13 22l87 55h18v-274h82v-24z" />
    <glyph glyph-name="onequarter" unicode="&#xbc;" horiz-adv-x="573" 
d="M135 60h-30l341 535h30zM499 0h-27v60h-155v25l142 213h40v-215h37v-23h-37v-60zM472 83v191l-124 -191h124zM223 362h-191v24h82v238l-65 -41l-13 22l87 55h18v-274h82v-24z" />
    <glyph glyph-name="onehalf" unicode="&#xbd;" horiz-adv-x="573" 
d="M135 60h-30l341 535h30zM223 362h-191v24h82v238l-65 -41l-13 22l87 55h18v-274h82v-24zM538 0h-201v50q0 36 87 87t87 82q0 55 -73 55q-45 0 -88 -29l-11 22q40 31 99 31q100 0 100 -79q0 -45 -87 -97q-88 -51 -88 -79v-19h175v-24z" />
    <glyph glyph-name="threequarters" unicode="&#xbe;" horiz-adv-x="573" 
d="M135 60h-30l341 535h30zM499 0h-27v60h-155v25l142 213h40v-215h37v-23h-37v-60zM472 83v191l-124 -191h124zM34 412q45 -29 88 -29q79 0 79 62q0 32 -22 52q-22 18 -58 18h-45v23h45q73 0 73 52q0 46 -74 46q-48 0 -86 -28l-11 23q41 29 97 29q101 0 101 -69
q0 -51 -54 -65q61 -16 61 -81q0 -86 -106 -86q-57 0 -99 30z" />
    <glyph glyph-name="Eth" unicode="&#xd0;" horiz-adv-x="576" 
d="M70 0v314h-58v30h58v306h176q275 0 275 -325t-275 -325h-176zM245 30q130 0 189 72q56 70 56 223q0 151 -56 222q-60 75 -192 75h-141v-278h185v-30h-185v-284h144z" />
    <glyph glyph-name="multiply" unicode="&#xd7;" horiz-adv-x="500" 
d="M410 62l-166 160l-165 -160l-19 24l162 157l-162 158l21 22l163 -158l164 158l21 -22l-163 -158l163 -157z" />
    <glyph glyph-name="Yacute" unicode="&#xdd;" horiz-adv-x="549" 
d="M290 0h-30v235l-220 415h34l201 -388l201 388h34l-220 -415v-235zM242 696h-28l67 114h48z" />
    <glyph glyph-name="Thorn" unicode="&#xde;" horiz-adv-x="494" 
d="M248 166q181 0 181 172q0 168 -183 168h-145v-340h147zM101 0h-31v650h31v-116h145q213 0 213 -196q0 -200 -213 -200h-145v-138z" />
    <glyph glyph-name="eth" unicode="&#xf0;" horiz-adv-x="499" 
d="M403 647l-50 -32q92 -84 92 -326q0 -147 -55 -225q-52 -74 -147 -74q-81 0 -135 65q-53 63 -53 158t52 153q51 56 136 56q61 0 108 -34q50 -36 68 -99q0 232 -91 309l-122 -79l-16 25l112 72q-34 17 -75 17q-28 0 -54 -7l-13 24q31 10 67 10q60 0 102 -27l57 37zM243 17
q71 0 117 59q45 56 45 137q0 80 -46 131t-116 51q-72 0 -115 -49q-43 -50 -43 -133q0 -82 45 -138q45 -58 113 -58z" />
    <glyph glyph-name="yacute" unicode="&#xfd;" horiz-adv-x="480" 
d="M184 -180h-30l69 183l-178 459h32l162 -424l164 424h32zM208 508h-28l67 114h48z" />
    <glyph glyph-name="thorn" unicode="&#xfe;" horiz-adv-x="499" 
d="M100 -188h-30v838h30v-257q53 79 148 79q90 0 141 -57q55 -61 55 -179q0 -115 -52 -181q-52 -65 -143 -65q-95 0 -149 71v-249zM100 97q52 -81 148 -81q80 0 125 59q43 57 43 161q0 210 -174 210q-98 0 -142 -94v-255z" />
    <glyph glyph-name="Lslash" unicode="&#x141;" horiz-adv-x="464" 
d="M444 0h-374v240l-57 -26v28l57 26v382h31v-368l214 98v-28l-214 -98v-226h343v-28z" />
    <glyph glyph-name="lslash" unicode="&#x142;" horiz-adv-x="170" 
d="M100 0h-30v258l-74 -37v28l74 37v364h30v-349l74 38v-28l-74 -38v-273z" />
    <glyph glyph-name="Scaron" unicode="&#x160;" horiz-adv-x="509" 
d="M70 65q73 -48 169 -48q88 0 137 35t49 99q0 70 -47 110q-30 25 -119 60q-94 37 -135 71q-58 48 -58 116q0 71 48 111q50 41 144 41q103 0 175 -52l-18 -22q-70 47 -157 47q-163 0 -163 -125q0 -57 49 -97q37 -30 125 -64q92 -36 127 -65q58 -49 58 -130q0 -77 -58 -120
q-57 -42 -157 -42q-112 0 -184 52zM268 698h-28l-80 140h35l59 -109l59 109h35z" />
    <glyph glyph-name="scaron" unicode="&#x161;" horiz-adv-x="421" 
d="M70 59q57 -43 130 -43q138 0 138 96q0 48 -42 79q-25 18 -92 45t-92 46q-42 33 -42 82q0 108 141 108q81 0 135 -40l-18 -22q-48 36 -117 36q-113 0 -113 -82q0 -40 42 -68q20 -13 92 -42q64 -26 92 -50q42 -36 42 -91q0 -59 -44 -91t-123 -32q-85 0 -144 46zM224 510
h-28l-80 140h35l59 -109l59 109h35z" />
    <glyph glyph-name="Zcaron" unicode="&#x17d;" horiz-adv-x="545" 
d="M490 0h-435v28l393 594h-364v28h397v-28l-393 -594h402v-28zM286 698h-28l-80 140h35l59 -109l59 109h35z" />
    <glyph glyph-name="zcaron" unicode="&#x17e;" horiz-adv-x="428" 
d="M373 0h-318v26l282 409h-263v27h294v-26l-282 -409h287v-27zM228 510h-28l-80 140h35l59 -109l59 109h35z" />
    <glyph glyph-name="uni0E00" unicode="&#xe00;" 
 />
    <glyph glyph-name="uni0E01" unicode="&#xe01;" horiz-adv-x="537" 
d="M472 0h-30v379q0 145 -178 145q-67 0 -116 -30q-47 -29 -62 -75l84 -48v-19q-61 -16 -61 -80v-272h-30v270q0 72 57 92l-81 45q14 66 73 105q58 38 139 38q98 0 152 -45q53 -45 53 -126v-379z" />
    <glyph glyph-name="uni0E02" unicode="&#xe02;" horiz-adv-x="484" 
d="M419 128q0 -69 -45.5 -103.5t-131.5 -34.5t-131.5 34.5t-45.5 103.5v169q0 46 63 91q44 32 44 73q0 52 -59 52h-58v27h56q89 0 89 -79q0 -45 -54 -91q-51 -42 -51 -74v-170q0 -110 147 -110t147 110v414h30v-412z" />
    <glyph glyph-name="uni0E03" unicode="&#xe03;" horiz-adv-x="485" 
d="M420 128q0 -69 -45.5 -103.5t-131.5 -34.5t-131.5 34.5t-45.5 103.5v174q0 45 63 94q50 39 50 73q0 45 -36 45l-58 -62h-30v88h29v-54l50 54q73 0 73 -71q0 -43 -60 -91q-51 -42 -51 -76v-176q0 -110 147 -110t147 110v414h30v-412z" />
    <glyph glyph-name="uni0E04" unicode="&#xe04;" horiz-adv-x="524" 
d="M459 0h-30v392q0 62 -43 97q-44 35 -124 35q-81 0 -124 -35t-43 -97v-155q28 46 97 46h82v-27h-82q-69 0 -97 -55v-201h-30v391q0 72 53 116q53 43 144 43t144 -43q53 -44 53 -116v-391z" />
    <glyph glyph-name="uni0E05" unicode="&#xe05;" horiz-adv-x="524" 
d="M459 0h-30v388q0 116 -84 137l-75 -82h-16l-75 82q-84 -21 -84 -137v-151q28 46 97 46h82v-27h-82q-69 0 -97 -55v-201h-30v398q0 70 34 111q33 39 90 41l71 -78h4l71 78q57 -2 90 -41q34 -41 34 -111v-398z" />
    <glyph glyph-name="uni0E06" unicode="&#xe06;" horiz-adv-x="531" 
d="M466 153q0 -163 -154 -163q-102 0 -212 112l-4 -102h-26v302q0 45 63 94q50 39 50 73q0 45 -36 45l-58 -62h-30v88h29v-54l50 54q73 0 73 -71q0 -43 -60 -91q-51 -42 -51 -76v-165q118 -121 212 -121q124 0 124 136v388h30v-387z" />
    <glyph glyph-name="uni0E07" unicode="&#xe07;" horiz-adv-x="500" 
d="M242 27q81 0 129 81q44 73 44 177q0 101 -38 165q-44 74 -131 74q-29 0 -58 -9l-6 26q30 9 65 9q102 0 154 -82q44 -70 44 -183t-51 -195q-56 -90 -145 -90h-76l-156 437h33l146 -410h46z" />
    <glyph glyph-name="uni0E08" unicode="&#xe08;" horiz-adv-x="509" 
d="M247 27q91 0 137 80q40 69 40 182q0 235 -204 235q-95 0 -167 -49l-13 23q82 52 180 52q234 0 234 -261q0 -126 -49 -204q-54 -85 -149 -85h-68l-47 256h-69v27h92l48 -256h35z" />
    <glyph glyph-name="uni0E09" unicode="&#xe09;" horiz-adv-x="520" 
d="M455 0h-26l-4 102q-110 -112 -193 -112q-156 0 -156 168v146h30v-147q0 -141 126 -141q75 0 193 121v243q0 144 -175 144q-108 0 -182 -49l-13 23q83 52 195 52q205 0 205 -170v-380z" />
    <glyph glyph-name="uni0E0A" unicode="&#xe0a;" horiz-adv-x="493" 
d="M423 128q0 -69 -45.5 -103.5t-131.5 -34.5t-131.5 34.5t-45.5 103.5v169q0 46 63 91q44 32 44 73q0 52 -59 52h-58v27h56q89 0 89 -79q0 -45 -54 -91q-51 -42 -51 -74v-170q0 -110 147 -110t147 110v188q0 75 -86 83v29l104 114h37l-112 -122q87 -17 87 -101v-189z" />
    <glyph glyph-name="uni0E0B" unicode="&#xe0b;" horiz-adv-x="493" 
d="M423 128q0 -69 -45.5 -103.5t-131.5 -34.5t-131.5 34.5t-45.5 103.5v174q0 45 63 94q50 39 50 73q0 45 -36 45l-58 -62h-30v88h29v-54l50 54q73 0 73 -71q0 -43 -60 -91q-51 -42 -51 -76v-176q0 -110 147 -110t147 110v188q0 75 -86 83v29l104 114h37l-112 -122
q87 -17 87 -101v-189z" />
    <glyph glyph-name="uni0E0C" unicode="&#xe0c;" horiz-adv-x="833" 
d="M768 158q0 -168 -146 -168q-105 0 -170 107l-4 -97h-26v379q0 145 -168 145q-134 0 -168 -105l84 -48v-19q-61 -16 -61 -80v-182q0 -63 62 -63h50v-27h-50q-92 0 -92 90v180q0 72 57 92l-81 45q14 67 67 106q55 37 135 37q195 0 195 -171v-242q75 -121 170 -121
q61 0 89 34q27 33 27 107v383h30v-382z" />
    <glyph glyph-name="uni0E0D" unicode="&#xe0d;" horiz-adv-x="833" 
d="M768 206q0 -94 -51 -139q49 -19 49 -77q0 -52 -46 -81q-44 -27 -121 -27q-93 0 -152 38l14 23q52 -35 138 -35q65 0 102 22t37 60q0 50 -44 61q-39 -21 -99 -21q-173 0 -173 176v173q0 145 -168 145q-134 0 -168 -105l84 -48v-19q-61 -16 -61 -80v-182q0 -63 62 -63h50
v-27h-50q-92 0 -92 90v180q0 72 57 92l-81 45q14 67 67 106q55 37 135 37q195 0 195 -171v-172q0 -151 143 -151t143 151v333h30v-334z" />
    <glyph glyph-name="uni0E0E" unicode="&#xe0e;" horiz-adv-x="550" 
d="M485 -180h-30q-103 71 -165 71q-68 0 -80 -71h-30q16 97 111 97q73 0 164 -65v527q0 145 -178 145q-67 0 -116 -30q-47 -29 -62 -75l89 -48v-19q-53 -14 -53 -80v-185q0 -87 -80 -87h-28v27h28q29 0 39 13q11 13 11 47v183q0 75 49 92l-86 45q14 66 73 105q58 38 139 38
q98 0 152 -45q53 -45 53 -126v-559z" />
    <glyph glyph-name="uni0E0F" unicode="&#xe0f;" horiz-adv-x="550" 
d="M485 -180h-26l-131 59q-25 -66 -98 -66q-59 0 -98 42l18 19q32 -35 80 -35q68 0 81 78l144 -63v525q0 145 -178 145q-67 0 -116 -30q-47 -29 -62 -75l89 -48v-19q-53 -14 -53 -80v-185q0 -87 -80 -87h-28v27h28q29 0 39 13q11 13 11 47v183q0 75 49 92l-86 45
q14 66 73 105q58 38 139 38q98 0 152 -45q53 -45 53 -126v-559z" />
    <glyph glyph-name="uni0E10" unicode="&#xe10;" horiz-adv-x="520" 
d="M384 -151q33 18 33 57q0 31 -19 53l19 16q26 -24 26 -69q0 -56 -59 -86l-126 59q-25 -66 -93 -66q-54 0 -93 42l18 19q33 -36 75 -36q63 0 76 77zM247 27q91 0 137 80q40 69 40 182q0 235 -204 235q-95 0 -167 -49l-13 23q82 52 180 52q39 0 74 -8l171 42v-34l-133 -20
q122 -51 122 -241q0 -126 -49 -204q-54 -85 -149 -85h-68l-47 256h-69v27h92l48 -256h35z" />
    <glyph glyph-name="uni0E11" unicode="&#xe11;" horiz-adv-x="531" 
d="M466 0h-30v398q0 73 -19 100q-18 26 -65 26q-41 0 -76 -27q-21 -17 -79 -78l-68 -82q-29 -40 -29 -84v-253h-30v255q0 60 61 127q53 57 53 89q0 43 -37 43l-58 -62h-30v88h29v-54l50 54q40 0 56 -17q17 -17 17 -58q75 85 141 85q62 0 88 -34q26 -35 26 -119v-397z" />
    <glyph glyph-name="uni0E12" unicode="&#xe12;" horiz-adv-x="846" 
d="M781 158q0 -168 -146 -168q-105 0 -170 107l-4 -97h-26v388q0 116 -84 137l-78 -82h-16l-78 82q-84 -21 -84 -137v-357q155 98 202 243h-103v27h131v-27q-48 -173 -230 -274h-30v398q0 70 34 111q33 39 90 41l74 -78h4l74 78q57 -2 90 -41q34 -41 34 -111v-261
q75 -121 170 -121q61 0 89 34q27 33 27 107v383h30v-382z" />
    <glyph glyph-name="uni0E13" unicode="&#xe13;" horiz-adv-x="833" 
d="M768 0h-26l-4 97q-65 -107 -170 -107q-146 0 -146 168v221q0 145 -168 145q-134 0 -168 -105l84 -48v-19q-61 -16 -61 -80v-182q0 -63 62 -63h50v-27h-50q-92 0 -92 90v180q0 72 57 92l-81 45q14 67 68 105t134 38q195 0 195 -171v-222q0 -74 27 -107q28 -34 89 -34
q95 0 170 121v403h30v-540z" />
    <glyph glyph-name="uni0E14" unicode="&#xe14;" horiz-adv-x="542" 
d="M477 0h-30v392q0 62 -50 98q-48 34 -126 34t-126 -34q-50 -36 -50 -98v-361q160 101 206 243h-103v27h131v-27q-48 -170 -234 -274h-30v391q0 72 57 116q57 43 149 43t149 -43q57 -44 57 -116v-391z" />
    <glyph glyph-name="uni0E15" unicode="&#xe15;" horiz-adv-x="542" 
d="M477 0h-30v388q0 114 -89 137l-79 -82h-16l-79 82q-89 -23 -89 -137v-357q160 101 206 243h-103v27h131v-27q-48 -170 -234 -274h-30v398q0 69 36 111q36 39 93 41l75 -78h4l75 78q57 -2 93 -41q36 -42 36 -111v-398z" />
    <glyph glyph-name="uni0E16" unicode="&#xe16;" horiz-adv-x="537" 
d="M472 0h-30v379q0 145 -178 145q-67 0 -116 -30q-47 -29 -62 -75l84 -48v-19q-61 -16 -61 -80v-182q0 -63 62 -63h50v-27h-50q-92 0 -92 90v180q0 72 57 92l-81 45q14 66 73 105q58 38 139 38q98 0 152 -45q53 -45 53 -126v-379z" />
    <glyph glyph-name="uni0E17" unicode="&#xe17;" horiz-adv-x="531" 
d="M466 0h-30v388q0 136 -124 136q-94 0 -212 -121v-403h-30v540h26l4 -102q110 112 212 112q154 0 154 -163v-387z" />
    <glyph glyph-name="uni0E18" unicode="&#xe18;" horiz-adv-x="515" 
d="M460 139q0 -72 -51 -110q-52 -39 -145 -39t-144 39q-52 38 -52 110v102h30v-102q0 -123 166 -123t166 123v61q0 56 -39 81q-34 21 -142 42q-109 21 -148 43q-46 26 -46 78q0 106 199 106q122 0 205 -52l-15 -24q-66 50 -184 50q-175 0 -175 -80q0 -36 34 -57
q37 -22 137 -39q118 -21 162 -54q42 -31 42 -93v-62z" />
    <glyph glyph-name="uni0E19" unicode="&#xe19;" horiz-adv-x="526" 
d="M461 0h-26l-4 102q-110 -112 -206 -112q-160 0 -160 168v382h30v-383q0 -141 130 -141q88 0 206 121v403h30v-540z" />
    <glyph glyph-name="uni0E1A" unicode="&#xe1a;" horiz-adv-x="532" 
d="M467 149q0 -79 -52 -119t-149 -40t-149 40t-52 119v391h30v-392q0 -132 171 -132t171 132v392h30v-391z" />
    <glyph glyph-name="uni0E1B" unicode="&#xe1b;" horiz-adv-x="532" 
d="M467 149q0 -79 -52 -119t-149 -40t-149 40t-52 119v391h30v-392q0 -132 171 -132t171 132v564h30v-563z" />
    <glyph glyph-name="uni0E1C" unicode="&#xe1c;" horiz-adv-x="596" 
d="M473 0h-41l-134 355l-134 -355h-41l-68 540h116v-27h-83l60 -481l131 344h38l131 -344l62 508h31z" />
    <glyph glyph-name="uni0E1D" unicode="&#xe1d;" horiz-adv-x="596" 
d="M473 0h-41l-134 355l-134 -355h-41l-68 540h116v-27h-83l60 -481l131 344h38l131 -344l83 680h29z" />
    <glyph glyph-name="uni0E1E" unicode="&#xe1e;" horiz-adv-x="648" 
d="M502 0h-43l-135 491l-135 -491h-43l-91 540h29l85 -516l136 493h38l136 -493l85 516h29z" />
    <glyph glyph-name="uni0E1F" unicode="&#xe1f;" horiz-adv-x="648" 
d="M502 0h-43l-135 491l-135 -491h-43l-91 540h29l85 -516l136 493h38l136 -493l105 688h27z" />
    <glyph glyph-name="uni0E20" unicode="&#xe20;" horiz-adv-x="550" 
d="M485 0h-30v379q0 145 -178 145q-67 0 -116 -30q-47 -29 -62 -75l89 -48v-19q-53 -14 -53 -80v-185q0 -87 -80 -87h-28v27h28q29 0 39 13q11 13 11 47v183q0 75 49 92l-86 45q14 66 73 105q58 38 139 38q98 0 152 -45q53 -45 53 -126v-379z" />
    <glyph glyph-name="uni0E21" unicode="&#xe21;" horiz-adv-x="531" 
d="M466 153q0 -163 -154 -163q-102 0 -212 112l-4 -102h-26v540h30v-403q118 -121 212 -121q124 0 124 136v388h30v-387z" />
    <glyph glyph-name="uni0E22" unicode="&#xe22;" horiz-adv-x="522" 
d="M457 148q0 -74 -54 -116q-53 -42 -150 -42q-198 0 -198 159q0 50 24 87q24 39 66 50q-85 31 -85 132q0 58 36 95t97 37q44 0 69 -9v-25q-24 8 -67 8q-50 0 -78 -30q-27 -28 -27 -76q0 -115 108 -115h69v-27h-58q-56 0 -89 -32q-35 -33 -35 -95q0 -133 169 -133
q79 0 124 32q49 33 49 97v395h30v-392z" />
    <glyph glyph-name="uni0E23" unicode="&#xe23;" horiz-adv-x="476" 
d="M70 67q76 -51 174 -51q69 0 110 36q38 33 38 80q0 56 -34 87q-33 29 -124 59q-85 28 -119 55q-47 36 -47 94q0 57 43 90q44 33 126 33q98 0 170 -49l-15 -22q-69 45 -155 45q-68 0 -106 -30q-34 -26 -34 -66q0 -45 34 -73q32 -26 109 -51q101 -32 140 -68q42 -38 42 -104
q0 -56 -42 -96q-49 -46 -136 -46q-110 0 -189 54z" />
    <glyph glyph-name="uni0E24" unicode="&#xe24;" horiz-adv-x="537" 
d="M472 -180h-30v559q0 145 -178 145q-67 0 -116 -30q-47 -29 -62 -75l84 -48v-19q-61 -16 -61 -80v-182q0 -63 62 -63h50v-27h-50q-92 0 -92 90v180q0 72 57 92l-81 45q14 66 73 105q58 38 139 38q98 0 152 -45q53 -45 53 -126v-559z" />
    <glyph glyph-name="uni0E25" unicode="&#xe25;" horiz-adv-x="518" 
d="M453 0h-30v286q-181 0 -256 -30q-82 -33 -82 -118q0 -58 35 -91q35 -32 95 -32q26 0 52 7l5 -24q-24 -8 -59 -8q-70 0 -113 37q-45 39 -45 109q0 91 76 132q84 45 292 45v74q0 72 -34 103q-36 34 -127 34q-98 0 -164 -49l-14 23q76 52 178 52q104 0 149 -41
q42 -40 42 -128v-381z" />
    <glyph glyph-name="uni0E26" unicode="&#xe26;" horiz-adv-x="550" 
d="M485 -180h-30v559q0 145 -178 145q-67 0 -116 -30q-47 -29 -62 -75l89 -48v-19q-53 -14 -53 -80v-185q0 -87 -80 -87h-28v27h28q29 0 39 13q11 13 11 47v183q0 75 49 92l-86 45q14 66 73 105q58 38 139 38q98 0 152 -45q53 -45 53 -126v-559z" />
    <glyph glyph-name="uni0E27" unicode="&#xe27;" horiz-adv-x="486" 
d="M81 63q65 -47 145 -47q96 0 138 68q37 60 37 186q0 254 -182 254q-81 0 -150 -49l-14 23q72 52 164 52q212 0 212 -280q0 -136 -44 -204q-50 -76 -161 -76q-88 0 -160 49z" />
    <glyph glyph-name="uni0E28" unicode="&#xe28;" horiz-adv-x="522" 
d="M459 0h-30v392q0 62 -43 97q-44 35 -124 35q-81 0 -124 -35t-43 -97v-155q28 46 97 46h82v-27h-82q-69 0 -97 -55v-201h-30v391q0 72 53 116q53 43 144 43q33 0 61 -6l164 40v-34l-124 -18q96 -39 96 -141v-391z" />
    <glyph glyph-name="uni0E29" unicode="&#xe29;" horiz-adv-x="547" 
d="M467 149q0 -75 -54 -117t-147 -42t-147 42t-54 117v391h30v-392q0 -132 171 -132t171 132v146h-162v27h162v219h30v-219h52v-27h-52v-145z" />
    <glyph glyph-name="uni0E2A" unicode="&#xe2a;" horiz-adv-x="518" 
d="M453 0h-30v286q-181 0 -256 -30q-82 -33 -82 -118q0 -58 35 -91q35 -32 95 -32q26 0 52 7l5 -24q-24 -8 -59 -8q-70 0 -113 37q-45 39 -45 109q0 91 76 132q84 45 292 45v74q0 72 -34 103q-36 34 -127 34q-98 0 -164 -49l-14 23q76 52 178 52q31 0 55 -3l153 37v-34
l-104 -15q87 -32 87 -154v-381z" />
    <glyph glyph-name="uni0E2B" unicode="&#xe2b;" horiz-adv-x="523" 
d="M458 0h-30v177q0 120 -121 120h-207v-297h-30v540h30v-215h207q121 0 121 138v77h30v-70q0 -132 -100 -160q46 -6 73 -43q27 -38 27 -94v-173z" />
    <glyph glyph-name="uni0E2C" unicode="&#xe2c;" horiz-adv-x="633" 
d="M502 0h-42l-136 354l-136 -354h-42l-91 540h29l85 -516l136 354h38l136 -354l58 406q12 69 -73 79v23l98 99h36l-104 -104q39 -6 58 -35q18 -27 12 -62z" />
    <glyph glyph-name="uni0E2D" unicode="&#xe2d;" horiz-adv-x="512" 
d="M92 41q53 -25 136 -25q102 0 153 76q47 68 47 188q0 244 -197 244q-97 0 -162 -45l-14 23q71 48 176 48q226 0 226 -270q0 -127 -50 -202q-59 -88 -182 -88q-94 0 -163 32v256h139v-28h-109v-209z" />
    <glyph glyph-name="uni0E2E" unicode="&#xe2e;" horiz-adv-x="512" 
d="M92 41q53 -25 136 -25q102 0 153 76q47 68 47 188q0 244 -197 244q-97 0 -162 -45l-14 23q71 48 176 48q25 0 50 -5l158 39v-34l-114 -17q132 -52 132 -253q0 -127 -50 -202q-59 -88 -182 -88q-94 0 -163 32v256h139v-28h-109v-209z" />
    <glyph glyph-name="uni0E2F" unicode="&#xe2f;" horiz-adv-x="439" 
d="M374 0h-30v398q-50 -87 -149 -87q-126 0 -126 130v99h30v-99q0 -104 96 -104q99 0 149 111v92h30v-540z" />
    <glyph glyph-name="uni0E30" unicode="&#xe30;" horiz-adv-x="269" 
d="M229 389h-122q-52 0 -52 50v30h30v-31q0 -22 23 -22h121v-27zM229 71h-122q-52 0 -52 50v30h30v-31q0 -22 23 -22h121v-27z" />
    <glyph glyph-name="uni0E31" unicode="&#xe31;" 
d="M34 641h-262q-52 0 -52 50v39h30v-37q0 -25 24 -25h260v-27z" />
    <glyph glyph-name="uni0E32" unicode="&#xe32;" horiz-adv-x="381" 
d="M316 0h-30v400q0 124 -117 124q-78 0 -130 -43l-14 23q61 46 145 46q146 0 146 -148v-402z" />
    <glyph glyph-name="uni0E33" unicode="&#xe33;" horiz-adv-x="381" 
d="M316 0h-30v400q0 124 -117 124q-78 0 -130 -43l-14 23q61 46 145 46q146 0 146 -148v-402zM-123 608q-33 0 -56 23t-23 56q0 34 23 57t56 23q34 0 57 -23t23 -57q0 -33 -23 -56t-57 -23zM-123 634q23 0 39 15q15 15 15 38t-15 39q-16 15 -39 15t-38 -15q-15 -16 -15 -39
q0 -22 15 -38q16 -15 38 -15z" />
    <glyph glyph-name="uni0E34" unicode="&#xe34;" 
d="M-60 641h-364v27h364v-27z" />
    <glyph glyph-name="uni0E35" unicode="&#xe35;" 
d="M-60 641h-364v27h334v72h30v-99z" />
    <glyph glyph-name="uni0E36" unicode="&#xe36;" 
d="M-146 668q-9 11 -9 29q0 25 17 41t43 16t43 -16t17 -41q0 -56 -60 -56h-329v27h278zM-95 667q31 0 31 30q0 31 -31 31t-31 -31q0 -30 31 -30z" />
    <glyph glyph-name="uni0E37" unicode="&#xe37;" 
d="M-60 641h-364v27h266v72h28v-72h40v72h30v-99z" />
    <glyph glyph-name="uni0E38" unicode="&#xe38;" 
d="M-60 -248h-30v107q0 32 -27 32h-39v26h41q55 0 55 -57v-108z" />
    <glyph glyph-name="uni0E39" unicode="&#xe39;" 
d="M-60 -170q0 -80 -89 -80t-89 80v33q0 28 -24 28h-27v26h29q52 0 52 -53v-40q0 -48 59 -48t59 48v93h30v-87z" />
    <glyph glyph-name="uni0E3A" unicode="&#xe3a;" 
d="M-49 -106q0 -27 -28 -27q-27 0 -27 27q0 28 27 28q28 0 28 -28z" />
    <glyph glyph-name="uni0E3F" unicode="&#xe3f;" horiz-adv-x="531" 
d="M236 -77h-30v77h-136v650h136v78h30v-78h27q194 0 194 -160q0 -60 -33 -104q-33 -43 -85 -56q137 -21 137 -156q0 -174 -198 -174h-42v-77zM277 28q84 0 125 32q43 35 43 114q0 72 -45 106q-46 36 -150 36h-149v-288h176zM250 344q85 0 131 39q47 38 47 108
q0 131 -162 131h-165v-278h149z" />
    <glyph glyph-name="uni0E40" unicode="&#xe40;" horiz-adv-x="208" 
d="M173 0h-28q-80 0 -80 87v453h30v-453q0 -34 11 -47q10 -13 39 -13h28v-27z" />
    <glyph glyph-name="uni0E41" unicode="&#xe41;" horiz-adv-x="381" 
d="M173 0h-28q-80 0 -80 87v453h30v-453q0 -34 11 -47q10 -13 39 -13h28v-27zM346 0h-28q-80 0 -80 87v453h30v-453q0 -34 11 -47q10 -13 39 -13h28v-27z" />
    <glyph glyph-name="uni0E42" unicode="&#xe42;" horiz-adv-x="241" 
d="M206 0h-28q-80 0 -80 87v506q0 99 -113 131q6 51 55 80q43 26 98 26q73 0 125 -42l-15 -21q-42 37 -110 37q-41 0 -74 -16q-39 -18 -47 -49q111 -34 111 -149v-503q0 -34 11 -47q10 -13 39 -13h28v-27z" />
    <glyph glyph-name="uni0E43" unicode="&#xe43;" horiz-adv-x="261" 
d="M226 0h-28q-80 0 -80 87v472q0 38 46 87q45 49 45 86q0 72 -93 72q-84 0 -102 -74h-28q6 47 44 74q36 26 86 26q55 0 89 -26q34 -27 34 -72q0 -40 -45 -90q-46 -50 -46 -82v-473q0 -34 11 -47q10 -13 39 -13h28v-27z" />
    <glyph glyph-name="uni0E44" unicode="&#xe44;" horiz-adv-x="243" 
d="M208 0h-28q-80 0 -80 87v545q0 111 91 170h-206v26h232v-35q-87 -53 -87 -161v-545q0 -34 11 -47q10 -13 39 -13h28v-27z" />
    <glyph glyph-name="uni0E45" unicode="&#xe45;" horiz-adv-x="381" 
d="M316 -180h-30v580q0 124 -117 124q-78 0 -130 -43l-14 23q61 46 145 46q146 0 146 -148v-582z" />
    <glyph glyph-name="uni0E46" unicode="&#xe46;" horiz-adv-x="490" 
d="M415 -146h-30v513q0 136 -67 153l-82 -82l-86 83q-65 -30 -65 -118q0 -99 79 -99q31 0 51 11v-25q-20 -11 -51 -11q-109 0 -109 124q0 120 102 147l79 -74l72 74q61 -12 85 -56q22 -40 22 -126v-514z" />
    <glyph glyph-name="uni0E47" unicode="&#xe47;" 
d="M-100 641h-65l-75 47l-88 -47q-42 0 -66 25q-21 22 -21 54q0 78 94 78h241v-26h-236q-68 0 -68 -52q0 -51 48 -54l97 51l82 -50h57v-26z" />
    <glyph glyph-name="uni0E48" unicode="&#xe48;" 
d="M-60 805h-30v107h30v-107z" />
    <glyph glyph-name="uni0E49" unicode="&#xe49;" 
d="M27 805h-207v40q0 23 -24 23h-23v25h39q38 0 38 -44v-20h177v-24z" />
    <glyph glyph-name="uni0E4A" unicode="&#xe4a;" 
d="M34 805h-121v20q0 41 -32 50l-63 -66l-63 66q-32 -9 -32 -50v-20h-27v27q0 64 67 69l55 -59l55 59q67 -5 67 -68v-4h94v-24z" />
    <glyph glyph-name="uni0E4B" unicode="&#xe4b;" 
d="M2 855h-63v-50h-28v50h-64v25h64v50h28v-50h63v-25z" />
    <glyph glyph-name="uni0E4C" unicode="&#xe4c;" 
d="M-35 791h-92q-31 0 -31 -29v-21h-30v18q0 58 59 58h94v-26z" />
    <glyph glyph-name="uni0E4D" unicode="&#xe4d;" 
d="M-123 608q-33 0 -56 23t-23 56q0 34 23 57t56 23q34 0 57 -23t23 -57q0 -33 -23 -56t-57 -23zM-123 634q23 0 39 15q15 15 15 38t-15 39q-16 15 -39 15t-38 -15q-15 -16 -15 -39q0 -22 15 -38q16 -15 38 -15z" />
    <glyph glyph-name="uni0E4E" unicode="&#xe4e;" 
d="M-196 641h-35q-71 0 -71 60q0 58 72 66q-24 13 -24 45q0 23 18 39q19 17 49 17h68v-23h-63q-47 0 -47 -36t33 -36h18v-23h-22q-75 0 -75 -50q0 -35 47 -35h32v-24z" />
    <glyph glyph-name="uni0E4F" unicode="&#xe4f;" horiz-adv-x="610" 
d="M540 218q0 -100 -66 -163q-64 -62 -162 -62t-162 62q-66 63 -66 163t66 163q64 62 162 62t162 -62q66 -63 66 -163zM510 218q0 87 -57 142q-56 54 -141 54t-141 -54q-57 -55 -57 -142t57 -142q56 -54 141 -54t141 54q57 55 57 142zM434 218q0 -54 -35 -88
q-34 -33 -87 -33t-87 33q-35 34 -35 88t35 88q34 33 87 33t87 -33q35 -34 35 -88zM404 218q0 42 -26 67q-25 24 -66 24t-66 -24q-26 -25 -26 -67t26 -66q25 -25 66 -25t66 25q26 24 26 66z" />
    <glyph glyph-name="uni0E50" unicode="&#xe50;" horiz-adv-x="584" 
d="M292 -10q-116 0 -177 72q-55 64 -55 164t55 164q61 72 177 72t178 -72q54 -64 54 -164t-54 -164q-62 -72 -178 -72zM292 15q98 0 152 63q49 57 49 148t-49 148q-54 63 -152 63t-152 -63q-49 -57 -49 -148t49 -148q54 -63 152 -63z" />
    <glyph glyph-name="uni0E51" unicode="&#xe51;" horiz-adv-x="584" 
d="M331 113q-36 -17 -75 -17q-89 0 -144 54q-52 50 -52 126q0 91 61 142t174 51q112 0 172 -58q61 -58 61 -165q0 -130 -71 -208q-75 -84 -212 -84q-53 0 -80 7v28q41 -7 80 -7q122 0 189 73q64 70 64 191q0 198 -207 198q-97 0 -150 -45q-52 -44 -52 -123q0 -66 43 -107
q47 -45 129 -45q32 0 61 12z" />
    <glyph glyph-name="uni0E52" unicode="&#xe52;" horiz-adv-x="542" 
d="M500 0h-323q-55 0 -86 29t-31 80v405q0 47 -1 66h30q1 -20 1 -58v-410q0 -83 105 -83h275v403h-160q-100 0 -100 -108q0 -97 92 -97q38 0 78 20l4 -24q-44 -22 -88 -22q-50 0 -82 32q-35 34 -35 91q0 62 35 99q35 39 98 39h188v-462z" />
    <glyph glyph-name="uni0E53" unicode="&#xe53;" horiz-adv-x="584" 
d="M516 0h-29v440l-165 -104l-121 101q-114 -36 -114 -196q0 -104 44 -164q46 -62 133 -62q32 0 61 12l9 -23q-29 -14 -75 -14q-98 0 -151 68q-51 66 -51 182q0 96 44 157q43 61 112 67l111 -92l145 90h47v-462z" />
    <glyph glyph-name="uni0E54" unicode="&#xe54;" horiz-adv-x="565" 
d="M514 0h-235q-119 0 -181 63q-59 59 -59 163q0 103 68 168q70 68 190 68h176q22 0 22 18v98h30v-101q0 -45 -51 -45h-177q-109 0 -170 -58q-58 -55 -58 -147q0 -199 213 -199h93q-39 14 -69 50q-34 40 -34 82v44q0 74 79 74h64v-26h-64q-31 0 -43 -13q-10 -11 -10 -43v-32
q0 -51 52 -95q49 -41 97 -41h67v-28z" />
    <glyph glyph-name="uni0E55" unicode="&#xe55;" horiz-adv-x="565" 
d="M514 0h-235q-119 0 -181 63q-59 59 -59 163q0 88 51 150q53 64 146 81q-17 17 -17 48q0 68 71 68t71 -68q0 -27 -14 -43h126q22 0 22 18v98h30v-101q0 -45 -51 -45h-177q-109 0 -170 -58q-58 -55 -58 -147q0 -199 210 -199h96q-39 14 -69 50q-34 40 -34 82v44q0 74 79 74
h64v-26h-64q-31 0 -43 -13q-10 -11 -10 -43v-32q0 -51 52 -95q49 -41 97 -41h67v-28zM290 462q45 0 45 43t-45 43t-45 -43t45 -43z" />
    <glyph glyph-name="uni0E56" unicode="&#xe56;" horiz-adv-x="576" 
d="M111 171q8 -68 61 -112q54 -44 131 -44q91 0 149 65q55 61 55 151q0 93 -49 148q-54 60 -158 60q-144 0 -216 -89h-27v164q0 47 -1 66h30q1 -20 1 -58v-129q75 76 213 76q110 0 174 -66q63 -64 63 -172q0 -104 -62 -171q-65 -70 -172 -70q-92 0 -153 51q-58 49 -70 130
h31z" />
    <glyph glyph-name="uni0E57" unicode="&#xe57;" horiz-adv-x="706" 
d="M655 114q0 -49 -58 -82q-54 -32 -120 -32h-29v440l-145 -104l-102 101q-114 -36 -114 -196q0 -104 44 -164q46 -62 133 -62q32 0 61 12l9 -23q-29 -14 -75 -14q-98 0 -151 68q-51 66 -51 182q0 96 44 157q43 61 112 67l92 -92l125 90h47v-438q57 4 100 29q48 27 48 64
v405q0 38 1 58h30q-1 -19 -1 -66v-400z" />
    <glyph glyph-name="uni0E58" unicode="&#xe58;" horiz-adv-x="561" 
d="M428 0l-138 148l-103 -148h-31q-117 47 -117 226q0 103 68 168q70 68 190 68h176q22 0 22 18v98h30v-101q0 -45 -51 -45h-177q-109 0 -170 -58q-58 -55 -58 -147q0 -162 99 -202l110 157h20l151 -159q43 66 43 144q0 82 -62 89v27q93 -4 93 -110q0 -75 -51 -173h-44z" />
    <glyph glyph-name="uni0E59" unicode="&#xe59;" horiz-adv-x="573" 
d="M536 6l-27 -7l-159 433h-141q-57 0 -91 -59q-31 -55 -31 -132q0 -104 44 -164q46 -62 133 -62q32 0 61 12l9 -23q-29 -14 -75 -14q-98 0 -151 68q-51 66 -51 182q0 97 44 159q44 63 112 63h153l45 -113h64q26 0 26 18v155q0 38 1 58h28q-1 -19 -1 -66v-148q0 -45 -53 -45
h-54z" />
    <glyph glyph-name="uni0E5B" unicode="&#xe5b;" horiz-adv-x="1204" 
d="M1189 210h-155q-48 0 -72 41l-47 79l-101 -195h-27l-95 183q-41 -135 -135 -218q-99 -88 -226 -88q-125 0 -204 68q-89 75 -89 211q0 106 73 180q74 75 186 75q104 0 167 -62q56 -55 63 -138h-26q-9 69 -49 115q-55 61 -155 61q-105 0 -172 -74q-60 -67 -60 -156
q0 -123 80 -191q73 -63 190 -63q124 0 220 97q88 88 116 216h35l94 -179l97 184h35l53 -88q18 -32 56 -32h148v-26z" />
    <glyph glyph-name="zerowidthnonjoiner" unicode="&#x200c;" 
 />
    <glyph glyph-name="zerowidthjoiner" unicode="&#x200d;" 
 />
    <glyph glyph-name="lefttorightmark" unicode="&#x200e;" 
 />
    <glyph glyph-name="righttoleftmark" unicode="&#x200f;" 
 />
    <glyph glyph-name="minute" unicode="&#x2032;" horiz-adv-x="150" 
d="M80 448h-28v92l7 75h51l-7 -74z" />
    <glyph glyph-name="second" unicode="&#x2033;" horiz-adv-x="257" 
d="M80 448h-28v92l7 75h51l-7 -74zM195 448h-28v92l7 75h51l-7 -74z" />
    <glyph glyph-name="uni2113" unicode="&#x2113;" horiz-adv-x="500" 
d="M407 18q-38 -28 -117 -28q-145 0 -145 112v145q-34 -15 -72 -24v26q52 15 72 26v231q0 155 125 155q65 0 96 -47q24 -37 24 -92q0 -144 -215 -260v-163q0 -46 44 -68q32 -16 78 -16q50 0 100 25zM175 290q188 112 188 233q0 43 -19 74q-24 40 -72 40q-97 0 -97 -131v-216
z" />
    <glyph glyph-name="estimated" unicode="&#x212e;" horiz-adv-x="561" 
d="M495 88q-70 -98 -207 -98q-129 0 -198 79q-60 69 -60 173q0 103 55 167q66 75 197 75q249 0 249 -243v-13h-434v-112q0 -45 67 -76q60 -28 125 -28q118 0 181 76h25zM467 250v123q0 38 -56 65t-129 27t-128 -27q-57 -27 -57 -65v-123h370z" />
    <glyph glyph-name="minus" unicode="&#x2212;" horiz-adv-x="500" 
d="M437 260h-375v26h375v-26z" />
    <glyph glyph-name="dottedcircle" unicode="&#x25cc;" horiz-adv-x="553" 
d="M297 513q0 -21 -20 -21t-20 21t20 21t20 -21zM205 493q0 -21 -20 -21t-20 21t20 21t20 -21zM389 493q0 -21 -20 -21t-20 21t20 21t20 -21zM131 442q0 -21 -20 -21t-20 21t20 21t20 -21zM463 442q0 -21 -20 -21t-20 21t20 21t20 -21zM83 370q0 -21 -20 -21t-20 21t20 21
t20 -21zM511 370q0 -21 -20 -21t-20 21t20 21t20 -21zM65 282q0 -21 -20 -21t-20 21t20 21t20 -21zM529 282q0 -21 -20 -21t-20 21t20 21t20 -21zM297 51q0 -21 -20 -21t-20 21t20 21t20 -21zM205 71q0 -21 -20 -21t-20 21t20 21t20 -21zM389 71q0 -21 -20 -21t-20 21t20 21
t20 -21zM131 122q0 -21 -20 -21t-20 21t20 21t20 -21zM463 122q0 -21 -20 -21t-20 21t20 21t20 -21zM83 194q0 -21 -20 -21t-20 21t20 21t20 -21zM511 194q0 -21 -20 -21t-20 21t20 21t20 -21z" />
    <glyph glyph-name="uni0E10.alt1" unicode="&#xf700;" horiz-adv-x="520" 
d="M247 27q91 0 137 80q40 69 40 182q0 235 -204 235q-95 0 -167 -49l-13 23q82 52 180 52q39 0 74 -8l171 42v-34l-133 -20q122 -51 122 -241q0 -126 -49 -204q-54 -85 -149 -85h-68l-47 256h-69v27h92l48 -256h35z" />
    <glyph glyph-name="uni0E34.alt1" unicode="&#xf701;" 
d="M-180 641h-364v27h364v-27z" />
    <glyph glyph-name="uni0E35.alt1" unicode="&#xf702;" 
d="M-180 641h-364v27h334v72h30v-99z" />
    <glyph glyph-name="uni0E36.alt1" unicode="&#xf703;" 
d="M-215 667q31 0 31 30q0 31 -31 31t-31 -31q0 -30 31 -30zM-266 668q-9 11 -9 29q0 25 17 41t43 16t43 -16t17 -41q0 -56 -60 -56h-329v27h278z" />
    <glyph glyph-name="uni0E37.alt1" unicode="&#xf704;" 
d="M-180 641h-364v27h266v72h28v-72h40v72h30v-99z" />
    <glyph glyph-name="uni0E48.alt1" unicode="&#xf705;" 
d="M-214 641h-30v145h30v-145z" />
    <glyph glyph-name="uni0E49.alt1" unicode="&#xf706;" 
d="M-137 641h-248v46q0 23 -22 23h-46v27h48q50 0 50 -49v-20h218v-27z" />
    <glyph glyph-name="uni0E4A.alt1" unicode="&#xf707;" 
d="M-16 641h-157v28q0 41 -33 50l-83 -79l-84 79q-33 -9 -33 -51v-27h-30v30q0 69 75 74l72 -69l71 69q75 -5 75 -77h127v-27z" />
    <glyph glyph-name="uni0E4B.alt1" unicode="&#xf708;" 
d="M-168 701h-69v-60h-30v60h-70v25h70v60h30v-60h69v-25z" />
    <glyph glyph-name="uni0E4C.alt1" unicode="&#xf709;" 
d="M-153 697h-103q-35 0 -35 -32v-24h-30v21q0 62 63 62h105v-27z" />
    <glyph glyph-name="uni0E48.alt2" unicode="&#xf70a;" 
d="M-60 641h-30v145h30v-145z" />
    <glyph glyph-name="uni0E49.alt2" unicode="&#xf70b;" 
d="M-17 641h-248v46q0 23 -22 23h-46v27h48q50 0 50 -49v-20h218v-27z" />
    <glyph glyph-name="uni0E4A.alt2" unicode="&#xf70c;" 
d="M12 641h-157v28q0 41 -33 50l-83 -79l-84 79q-33 -9 -33 -51v-27h-30v30q0 69 75 74l72 -69l71 69q75 -5 75 -77h127v-27z" />
    <glyph glyph-name="uni0E4B.alt2" unicode="&#xf70d;" 
d="M-48 701h-69v-60h-30v60h-70v25h70v60h30v-60h69v-25z" />
    <glyph glyph-name="uni0E4C.alt2" unicode="&#xf70e;" 
d="M27 697h-173q-35 0 -35 -32v-24h-30v21q0 62 63 62h175v-27z" />
    <glyph glyph-name="uni0E0D.alt1" unicode="&#xf70f;" horiz-adv-x="833" 
d="M768 166q0 -176 -173 -176t-173 176v213q0 145 -168 145q-134 0 -168 -105l84 -48v-19q-61 -16 -61 -80v-182q0 -63 62 -63h50v-27h-50q-92 0 -92 90v180q0 72 57 92l-81 45q14 67 68 105t134 38q195 0 195 -171v-212q0 -151 143 -151t143 151v373h30v-374z" />
    <glyph glyph-name="uni0E31.alt1" unicode="&#xf710;" 
d="M-11 641h-328q-52 0 -52 50v39h30v-37q0 -25 24 -25h326v-27z" />
    <glyph glyph-name="uni0E4D.alt1" unicode="&#xf711;" 
d="M-273 608q-33 0 -56 23t-23 56q0 34 23 57t56 23q34 0 57 -23t23 -57q0 -33 -23 -56t-57 -23zM-273 634q23 0 39 15q15 15 15 38t-15 39q-16 15 -39 15t-38 -15q-15 -16 -15 -39q0 -22 15 -38q16 -15 38 -15z" />
    <glyph glyph-name="uni0E47.alt1" unicode="&#xf712;" 
d="M-159 640l-108 47l-94 -46q-42 0 -65 25q-21 22 -21 54q0 36 28 57q26 21 70 21h227v-26h-222q-73 0 -73 -52t49 -52l102 49l107 -45v-32z" />
    <glyph glyph-name="uni0E48.alt3" unicode="&#xf713;" 
d="M-180 805h-30v107h30v-107z" />
    <glyph glyph-name="uni0E49.alt3" unicode="&#xf714;" 
d="M-93 805h-207v29q0 23 -5 29q-6 6 -26 6h-16v24h35q42 0 42 -44v-20h177v-24z" />
    <glyph glyph-name="uni0E4A.alt3" unicode="&#xf715;" 
d="M-46 805h-121v20q0 41 -32 50l-63 -66l-63 66q-32 -9 -32 -50v-20h-27v27q0 64 67 69l55 -59l55 59q67 -5 67 -68v-4h94v-24z" />
    <glyph glyph-name="uni0E4B.alt3" unicode="&#xf716;" 
d="M-118 855h-63v-50h-28v50h-64v25h64v50h28v-50h63v-25z" />
    <glyph glyph-name="uni0E4C.alt3" unicode="&#xf717;" 
d="M-171 791h-92q-31 0 -31 -29v-21h-30v18q0 58 59 58h94v-26z" />
    <glyph glyph-name="uni0E38.alt1" unicode="&#xf718;" 
d="M-60 -339h-30v107q0 32 -29 32h-37v26h39q57 0 57 -57v-108z" />
    <glyph glyph-name="uni0E39.alt1" unicode="&#xf719;" 
d="M-60 -267q0 -75 -94 -75t-94 75v67h-54v26h84v-93q0 -48 64 -48t64 48v93h30v-93z" />
    <glyph glyph-name="uni0E3A.alt1" unicode="&#xf71a;" 
d="M-49 -195q0 -26 -26 -26t-26 26t26 26t26 -26z" />
    <glyph glyph-name="uni0E0E.alt1" unicode="&#xf71b;" horiz-adv-x="550" 
d="M485 -150h-30q-103 71 -165 71q-68 0 -80 -71h-30q16 97 111 97q73 0 164 -65v497q0 145 -178 145q-67 0 -116 -30q-47 -29 -62 -75l89 -48v-19q-53 -14 -53 -80v-185q0 -87 -80 -87h-28v27h28q29 0 39 13q11 13 11 47v183q0 75 49 92l-86 45q14 66 73 105q58 38 139 38
q98 0 152 -45q53 -45 53 -126v-529z" />
    <glyph glyph-name="uni0E0F.alt1" unicode="&#xf71c;" horiz-adv-x="550" 
d="M485 -150h-26l-131 59q-25 -66 -98 -66q-59 0 -98 42l18 19q32 -35 80 -35q68 0 81 78l144 -63v495q0 145 -178 145q-67 0 -116 -30q-47 -29 -62 -75l89 -48v-19q-53 -14 -53 -80v-185q0 -87 -80 -87h-28v27h28q29 0 39 13q11 13 11 47v183q0 75 49 92l-86 45
q14 66 73 105q58 38 139 38q98 0 152 -45q53 -45 53 -126v-529z" />
    <glyph glyph-name="uni0E2C.alt1" unicode="&#xf71d;" horiz-adv-x="627" 
d="M502 0h-42l-136 354l-136 -354h-42l-91 540h29l85 -516l136 354h38l136 -354l52 369q2 12 2 17q0 53 -75 62v23l98 99h36l-104 -104q71 -12 71 -81q0 -11 -1 -16z" />
    <glyph glyph-name="KTR" horiz-adv-x="740" 
d="M685 326q0 -179 -158 -283q-79 -52 -158 -68q-78 16 -157 68q-157 104 -157 283v261q0 114 116 114h397q117 0 117 -114v-261zM546 167v224q0 84 -58 141q-58 58 -144 58t-144 -58q-57 -57 -57 -141h88q0 52 31 84q31 31 82 31q52 0 82 -31q31 -31 31 -84v-224h89z
M319 167v224h-88v-224h88z" />
    <glyph glyph-name="sfthyphen" unicode="&#xad;" horiz-adv-x="297" 
d="M247 233h-197v27h197v-27z" />
    <glyph glyph-name="nonbreakingspace" unicode="&#xa0;" horiz-adv-x="220" 
 />
    <glyph glyph-name="uni03BC" unicode="&#x3bc;" horiz-adv-x="453" 
d="M451 1q-21 -10 -40 -10q-36 0 -36 57v18q-58 -76 -153 -76q-91 0 -127 62v-232h-30v642h30v-316q0 -60 36 -95q35 -35 96 -35q92 0 148 83v363h30v-414q0 -31 21 -31q11 0 25 9v-25z" />
    <glyph glyph-name="pi" unicode="&#x3c0;" horiz-adv-x="522" 
d="M499 9q-32 -14 -60 -14q-50 0 -50 47v367h-256v-409h-30v409h-89v26h492v-26h-87v-365q0 -24 31 -24q25 0 49 11v-22z" />
    <glyph glyph-name="nonmarkingreturn" 
 />
    </font>
</defs>
</svg>
