<?xml version="1.0" standalone="no"?>
<!DOCTYPE svg PUBLIC "-//W3C//DTD SVG 1.1//EN" "http://www.w3.org/Graphics/SVG/1.1/DTD/svg11.dtd" >
<svg>
<metadata>
Created by FontForge 20090622 at Thu Aug 15 10:51:37 2019
 By deploy user
Copyright (c) 2014 by Katatrad Aksorn Co.,Ltd.. All rights reserved. This font is an exclusive license to True Digital Content &#38; Media Company Limited
</metadata>
<defs>
<font id="Anuyart-Bold" horiz-adv-x="0" >
  <font-face 
    font-family="Anuyart Bold"
    font-weight="500"
    font-stretch="normal"
    units-per-em="1000"
    panose-1="2 11 5 0 4 2 0 2 0 3"
    ascent="750"
    descent="-250"
    x-height="461"
    cap-height="650"
    bbox="-641 -430 1422 990"
    underline-thickness="30"
    underline-position="-20"
    unicode-range="U+000D-U+FB02"
  />
<missing-glyph horiz-adv-x="806" 
d="M747 0h-683v944h683v-944zM722 25v892h-633v-892h633z" />
    <glyph glyph-name="fi" unicode="fi" horiz-adv-x="650" 
d="M595 0h-155v375h-198v-375h-154v375h-68v86h68v26q0 171 167 171q64 0 121 -25l-29 -91q-26 14 -48 14q-56 0 -56 -59v-36h352v-461zM597 543h-160v107h160v-107z" />
    <glyph glyph-name="fl" unicode="fl" horiz-adv-x="644" 
d="M590 0h-155v540q-22 -10 -41 -10q-20 0 -57 13q-36 13 -51 13q-43 0 -43 -59v-36h111v-86h-112v-375h-154v375h-68v86h68v26q0 171 182 171q33 0 79 -18q45 -18 75 -18q60 0 166 30v-652z" />
    <glyph glyph-name="uni0E4F.liga" unicode="&#xe4f;&#x22;" horiz-adv-x="567" 
d="M513 218q0 -100 -66 -163q-64 -62 -162 -62t-162 62q-66 63 -66 163t66 163q64 62 162 62t162 -62q66 -63 66 -163zM467 218q0 79 -52 130q-52 50 -130 50t-130 -50q-52 -51 -52 -130t52 -130q52 -50 130 -50t130 50q52 51 52 130zM415 218q0 -58 -37 -94
q-36 -35 -93 -35t-93 35q-37 36 -37 94t37 94q36 35 93 35t93 -35q37 -36 37 -94zM374 218q0 40 -25 64t-64 24q-40 0 -64 -24q-25 -24 -25 -64t25 -64q24 -24 64 -24q39 0 64 24t25 64zM226 471h-53l-18 186h89zM400 471h-53l-18 186h89z" />
    <glyph glyph-name="uni0E24.liga" unicode="&#xe24;&#xe32;" horiz-adv-x="933" 
d="M884 -183h-154v549q0 82 -80 82q-51 0 -98 -32q12 -25 12 -59v-540h-155v535q0 96 -105 96q-88 0 -118 -55l78 -43v-40q-52 -17 -52 -92v-78q0 -38 36 -38h43v-102h-122q-50 0 -81 29t-31 81v116q0 84 58 108l-84 55q18 72 97 118q75 43 172 43q119 0 190 -50
q73 50 191 50q203 0 203 -190v-543z" />
    <glyph glyph-name="uni0E26.liga" unicode="&#xe26;&#xe32;" horiz-adv-x="946" 
d="M897 -183h-155v549q0 82 -79 82q-52 0 -101 -33q9 -25 9 -58v-540h-154v535q0 96 -106 96q-86 0 -118 -55l80 -43v-40q-36 -15 -36 -68v-137q0 -105 -104 -105h-112v102h31q31 0 31 36v96q0 73 41 100l-86 55q19 72 97 118q76 43 172 43q122 0 193 -52q74 52 193 52
q204 0 204 -190v-543z" />
    <glyph glyph-name="KTR" unicode="KATATRAD&#x28;c&#x29;" horiz-adv-x="740" 
d="M685 326q0 -179 -158 -283q-79 -52 -158 -68q-78 16 -157 68q-157 104 -157 283v261q0 114 116 114h397q117 0 117 -114v-261zM546 167v224q0 84 -58 141q-58 58 -144 58t-144 -58q-57 -57 -57 -141h88q0 52 31 84q31 31 82 31q52 0 82 -31q31 -31 31 -84v-224h89z
M319 167v224h-88v-224h88z" />
    <glyph glyph-name=".notdef" horiz-adv-x="806" 
d="M747 0h-683v944h683v-944zM722 25v892h-633v-892h633z" />
    <glyph glyph-name="space" unicode=" " horiz-adv-x="260" 
 />
    <glyph glyph-name="exclam" unicode="!" horiz-adv-x="287" 
d="M219 0h-156v129h156v-129zM200 206h-118l-24 189v255h166v-255z" />
    <glyph glyph-name="quotedbl" unicode="&#x22;" horiz-adv-x="418" 
d="M156 429h-81l-24 248h129zM343 429h-81l-24 248h129z" />
    <glyph glyph-name="numbersign" unicode="#" horiz-adv-x="808" 
d="M710 168h-132l-42 -168h-143l43 168h-137l-44 -168h-142l41 168h-104v85h127l37 148h-116v85h136l41 164h143l-40 -164h137l40 164h144l-41 -164h100v-85h-121l-38 -148h111v-85zM459 252l35 151h-139l-36 -151h140z" />
    <glyph glyph-name="dollar" unicode="$" horiz-adv-x="557" 
d="M353 -77h-134v72q-113 10 -180 66l57 106q73 -55 172 -55q107 0 107 58q0 48 -127 104l-16 7q-92 41 -128 76q-48 47 -48 121q0 140 163 172v78h134v-71q102 -10 166 -65l-57 -100q-65 46 -134 46q-110 0 -110 -59q0 -27 31 -47q18 -13 80 -39l59 -25q150 -64 150 -187
q0 -71 -48 -121q-50 -52 -137 -65v-72z" />
    <glyph glyph-name="percent" unicode="%" horiz-adv-x="1023" 
d="M414 0h-140l342 650h138zM227 336q74 0 74 118t-74 118t-74 -118t74 -118zM422 454q0 -100 -53 -153q-51 -52 -142 -52t-142 52q-53 53 -53 153t53 154q51 51 142 51t142 -51q53 -54 53 -154zM796 75q74 0 74 118t-74 118t-74 -118t74 -118zM991 193q0 -100 -53 -153
q-51 -52 -142 -52t-142 52q-53 53 -53 153t53 154q51 51 142 51t142 -51q53 -54 53 -154z" />
    <glyph glyph-name="ampersand" unicode="&#x26;" horiz-adv-x="737" 
d="M692 62l-98 -74l-71 64q-97 -66 -240 -66q-109 0 -171 51q-60 51 -60 138q0 125 128 187q-86 73 -86 147q0 151 218 151q223 0 223 -138q0 -108 -144 -164l141 -143q9 63 9 130h127q0 -124 -58 -209zM270 294q-54 -45 -54 -96q0 -42 29 -68q29 -27 77 -27q56 0 112 33z
M252 515q0 -51 67 -104q60 50 60 94q0 74 -65 74q-62 0 -62 -64z" />
    <glyph glyph-name="quotesingle" unicode="'" horiz-adv-x="232" 
d="M157 429h-82l-23 248h129z" />
    <glyph glyph-name="parenleft" unicode="(" horiz-adv-x="420" 
d="M193 -61q-140 163 -140 370t140 370h175q-153 -185 -153 -370t153 -370h-175z" />
    <glyph glyph-name="parenright" unicode=")" horiz-adv-x="420" 
d="M52 -61q153 185 153 370t-153 370h175q140 -163 140 -370t-140 -370h-175z" />
    <glyph glyph-name="asterisk" unicode="*" horiz-adv-x="586" 
d="M460 302l-90 -53l-77 138l-82 -139l-90 53l126 128l-185 35l39 99l160 -70l-22 161h103l-19 -162l157 72l44 -99l-190 -33z" />
    <glyph glyph-name="plus" unicode="+" horiz-adv-x="596" 
d="M371 42h-146v187h-185v111h185v185h146v-185h184v-111h-184v-187z" />
    <glyph glyph-name="comma" unicode="," horiz-adv-x="273" 
d="M115 -157h-104l67 295h160z" />
    <glyph glyph-name="hyphen" unicode="-" horiz-adv-x="449" 
d="M383 198h-317v110h317v-110z" />
    <glyph glyph-name="period" unicode="." horiz-adv-x="273" 
d="M216 0h-159v161h159v-161z" />
    <glyph glyph-name="slash" unicode="/" horiz-adv-x="375" 
d="M124 -60h-148l270 736h150z" />
    <glyph glyph-name="zero" unicode="0" horiz-adv-x="596" 
d="M298 117q108 0 108 208t-108 208t-108 -208t108 -208zM572 325q0 -338 -274 -338t-274 338t274 338t274 -338z" />
    <glyph glyph-name="one" unicode="1" horiz-adv-x="596" 
d="M543 0h-454v118h150v388l-125 -77l-48 108l190 123h149v-542h138v-118z" />
    <glyph glyph-name="two" unicode="2" horiz-adv-x="596" 
d="M538 0h-481v98q0 109 133 198q160 108 172 129q14 26 11 51q-8 54 -100 54q-102 0 -171 -41l-43 110q95 61 235 61q249 0 249 -198q0 -100 -124 -182q-167 -111 -171 -117q-21 -22 -22 -44h312v-119z" />
    <glyph glyph-name="three" unicode="3" horiz-adv-x="596" 
d="M433 341q111 -32 111 -156q0 -98 -75 -151q-67 -47 -169 -47q-155 0 -247 61l43 110q69 -41 182 -41q53 0 79 28q21 22 21 55q0 44 -27 61t-94 17h-78v125h111q84 0 84 61q0 66 -92 66q-114 0 -186 -41l-43 110q95 61 246 61q101 0 164 -39q74 -45 74 -132q0 -52 -27 -91
q-28 -41 -77 -53v-4z" />
    <glyph glyph-name="four" unicode="4" horiz-adv-x="596" 
d="M496 0h-166v129h-297v127l283 404h180v-409h74v-122h-74v-129zM330 251v212l-143 -212h143z" />
    <glyph glyph-name="five" unicode="5" horiz-adv-x="596" 
d="M511 531h-257l-9 -109q12 1 59 1q238 0 238 -214q0 -110 -84 -170q-72 -52 -176 -52q-143 0 -235 61l42 110q71 -41 171 -41q54 0 85 28q30 26 30 66q0 49 -49 74q-42 22 -108 22q-91 0 -143 -9l27 352h409v-119z" />
    <glyph glyph-name="six" unicode="6" horiz-adv-x="596" 
d="M488 497q-63 35 -148 35q-62 0 -101 -37q-41 -40 -43 -112q45 53 133 53q105 0 165 -53q63 -56 63 -156q0 -107 -63 -172q-67 -68 -182 -68q-125 0 -194 71q-78 80 -78 242q0 170 72 263q76 97 222 97q126 0 204 -64zM303 98q41 0 69 33q28 34 28 87q0 51 -28 82
q-27 30 -69 30t-70 -31t-28 -82q0 -53 28 -86t70 -33z" />
    <glyph glyph-name="seven" unicode="7" horiz-adv-x="596" 
d="M254 0h-183l292 531h-310v119h495v-110z" />
    <glyph glyph-name="eight" unicode="8" horiz-adv-x="596" 
d="M431 343q136 -44 136 -161q0 -94 -70 -144q-69 -51 -197 -51t-197 51q-70 50 -70 144q0 115 132 165v3q-44 12 -77 50q-35 40 -35 88q0 81 63 126q64 46 184 46t184 -46q63 -45 63 -126q0 -47 -37 -90q-35 -41 -79 -51v-4zM405 185q0 77 -142 109q-68 -33 -68 -109
q0 -41 28 -68q30 -27 78 -27q47 0 76 27q28 27 28 68zM251 425q31 -24 77 -35q57 39 57 91q0 35 -24 55q-23 20 -60 20q-38 0 -62 -20t-24 -51q0 -33 36 -60z" />
    <glyph glyph-name="nine" unicode="9" horiz-adv-x="596" 
d="M122 151q63 -36 147 -36q60 0 97 45q36 43 36 111q-48 -58 -133 -58q-105 0 -166 55q-62 56 -62 155q0 106 64 170q66 67 182 67q272 0 272 -310q0 -170 -66 -262q-73 -101 -217 -101q-128 0 -203 65zM296 322q42 0 69 30q29 30 29 80q0 53 -28 86q-28 31 -70 31t-69 -31
q-28 -33 -28 -86q0 -51 28 -81q27 -29 69 -29z" />
    <glyph glyph-name="colon" unicode=":" horiz-adv-x="281" 
d="M214 0h-147v145h147v-145zM214 317h-147v146h147v-146z" />
    <glyph glyph-name="semicolon" unicode=";" horiz-adv-x="281" 
d="M112 -167h-102l67 296h154zM214 317h-147v146h147v-146z" />
    <glyph glyph-name="less" unicode="&#x3c;" horiz-adv-x="596" 
d="M510 16l-424 199v96l424 198v-118l-272 -128l272 -128v-119z" />
    <glyph glyph-name="equal" unicode="=" horiz-adv-x="596" 
d="M511 314h-426v111h426v-111zM511 97h-426v110h426v-110z" />
    <glyph glyph-name="greater" unicode="&#x3e;" horiz-adv-x="596" 
d="M510 215l-424 -199v119l272 128l-272 128v118l424 -198v-96z" />
    <glyph glyph-name="question" unicode="?" horiz-adv-x="533" 
d="M290 183h-132v46q0 74 86 140q85 66 85 104q0 67 -102 67q-92 0 -156 -44l-47 94q88 72 244 72q97 0 158 -38q70 -43 70 -126q0 -96 -103 -164q-60 -40 -71 -50q-32 -29 -32 -65v-36zM302 0h-156v129h156v-129z" />
    <glyph glyph-name="at" unicode="@" horiz-adv-x="850" 
d="M589 -158q-76 -17 -180 -17q-158 0 -256 111q-98 110 -98 284q0 171 104 277q106 107 277 107q173 0 275 -105q100 -103 100 -244q0 -178 -116 -255h-121l-37 40q-60 -45 -145 -45q-70 0 -113 60t-43 156q0 220 205 220q74 0 149 -48v-285l42 -40q89 53 89 197
q0 105 -77 187q-78 82 -208 82q-129 0 -209 -85t-80 -220q0 -139 74 -224q75 -86 200 -86q98 0 168 22v-89zM497 112v222q-36 14 -74 14q-88 0 -88 -134q0 -140 82 -140q34 0 80 38z" />
    <glyph glyph-name="A" unicode="A" horiz-adv-x="699" 
d="M428 243l-81 270l-80 -270h161zM670 0h-173l-39 124h-220l-39 -124h-170l217 650h207z" />
    <glyph glyph-name="B" unicode="B" horiz-adv-x="605" 
d="M443 336q123 -25 123 -148q0 -188 -230 -188h-282v650h273q102 0 159 -42t57 -120q0 -108 -100 -148v-4zM303 115q52 0 75 16q25 18 25 61t-25 61q-25 17 -80 17h-78v-155h83zM295 385q86 0 86 76q0 72 -83 72h-78v-148h75z" />
    <glyph glyph-name="C" unicode="C" horiz-adv-x="623" 
d="M584 52q-77 -62 -224 -62q-149 0 -235 90t-86 243t86 245q87 92 233 92q139 0 217 -60l-61 -103q-53 41 -135 41q-74 0 -124 -58q-53 -60 -53 -157t51 -155q50 -56 131 -56q84 0 144 47z" />
    <glyph glyph-name="D" unicode="D" horiz-adv-x="622" 
d="M54 0v650h233q304 0 304 -324q0 -326 -304 -326h-233zM283 118q83 0 116 51q29 45 29 156q0 110 -29 156q-33 50 -117 50h-62v-413h63z" />
    <glyph glyph-name="E" unicode="E" horiz-adv-x="529" 
d="M494 0h-440v650h440v-119h-274v-146h210v-119h-210v-148h274v-118z" />
    <glyph glyph-name="F" unicode="F" horiz-adv-x="518" 
d="M220 0h-166v650h440v-119h-274v-146h210v-119h-210v-266z" />
    <glyph glyph-name="G" unicode="G" horiz-adv-x="642" 
d="M599 52q-84 -62 -235 -62q-154 0 -240 90q-85 89 -85 243q0 153 88 245q89 92 235 92q144 0 222 -60l-62 -103q-60 41 -139 41q-74 0 -126 -58q-55 -61 -55 -157q0 -97 51 -155q49 -56 130 -56q47 0 72 19v126h-121v117h265v-322z" />
    <glyph glyph-name="H" unicode="H" horiz-adv-x="657" 
d="M603 0h-166v263h-217v-263h-166v650h166v-267h217v267h166v-650z" />
    <glyph glyph-name="I" unicode="I" horiz-adv-x="274" 
d="M220 0h-166v650h166v-650z" />
    <glyph glyph-name="J" unicode="J" horiz-adv-x="501" 
d="M452 220q0 -113 -65 -173q-62 -57 -170 -57q-126 0 -209 68l60 97q51 -43 116 -43q56 0 80 25q22 23 22 75v438h166v-430z" />
    <glyph glyph-name="K" unicode="K" horiz-adv-x="653" 
d="M636 0h-198l-214 344l216 306h187l-217 -309zM220 0h-166v650h166v-650z" />
    <glyph glyph-name="L" unicode="L" horiz-adv-x="518" 
d="M494 0h-440v650h166v-532h274v-118z" />
    <glyph glyph-name="M" unicode="M" horiz-adv-x="752" 
d="M698 0h-164v331l-129 -263h-58l-129 263v-331h-164v650h150l170 -369l173 369h151v-650z" />
    <glyph glyph-name="N" unicode="N" horiz-adv-x="658" 
d="M604 0h-151l-234 393v-393h-165v650h155l230 -402v402h165v-650z" />
    <glyph glyph-name="O" unicode="O" horiz-adv-x="693" 
d="M346 112q145 0 145 213t-145 213q-144 0 -144 -213t144 -213zM572 78q-82 -88 -226 -88q-143 0 -225 88q-82 89 -82 247t82 247q82 88 225 88q144 0 226 -88q82 -89 82 -247t-82 -247z" />
    <glyph glyph-name="P" unicode="P" horiz-adv-x="588" 
d="M282 304q116 0 116 115q0 112 -116 112h-62v-227h62zM220 0h-166v650h244q263 0 263 -231q0 -117 -71 -176q-68 -56 -192 -56h-78v-187z" />
    <glyph glyph-name="Q" unicode="Q" horiz-adv-x="701" 
d="M601 -113q-162 28 -253 103q-142 0 -225 88q-84 90 -84 247q0 158 82 247q82 88 225 88q144 0 226 -88q82 -89 82 -247q0 -220 -166 -296l113 -20v-122zM346 112q145 0 145 213t-145 213q-144 0 -144 -213t144 -213z" />
    <glyph glyph-name="R" unicode="R" horiz-adv-x="615" 
d="M586 0h-167l-42 135q-14 45 -29 60q-19 18 -64 18h-60v-213h-166v650h249q257 0 257 -215q0 -129 -107 -177q50 -19 75 -94zM291 335q111 0 111 100q0 96 -111 96h-67v-196h67z" />
    <glyph glyph-name="S" unicode="S" horiz-adv-x="572" 
d="M460 492q-79 46 -155 46q-89 0 -89 -59q0 -30 50 -55q17 -8 51 -22q43 -17 59 -24q160 -71 160 -197q0 -95 -77 -146q-69 -45 -179 -45q-153 0 -243 82l56 106q80 -66 172 -66q105 0 105 65q0 34 -43 59q-13 8 -98 43q-90 40 -127 77q-49 48 -49 122q0 83 67 133
q66 49 177 49q130 0 220 -68z" />
    <glyph glyph-name="T" unicode="T" horiz-adv-x="539" 
d="M353 0h-166v531h-179v119h523v-119h-178v-531z" />
    <glyph glyph-name="U" unicode="U" horiz-adv-x="647" 
d="M598 222q0 -114 -75 -174q-71 -58 -199 -58t-200 58q-75 60 -75 174v428h166v-413q0 -126 109 -126q108 0 108 126v413h166v-428z" />
    <glyph glyph-name="V" unicode="V" horiz-adv-x="694" 
d="M452 0h-210l-213 650h170l148 -512l148 512h170z" />
    <glyph glyph-name="W" unicode="W" horiz-adv-x="854" 
d="M681 0h-159l-95 432l-95 -432h-159l-144 650h166l80 -444l87 418h130l87 -418l80 444h166z" />
    <glyph glyph-name="X" unicode="X" horiz-adv-x="678" 
d="M650 0h-183l-130 225l-133 -225h-176l218 328l-206 322h181l121 -218l123 218h176l-206 -318z" />
    <glyph glyph-name="Y" unicode="Y" horiz-adv-x="666" 
d="M415 0h-166v224l-221 426h170l134 -291l134 291h172l-223 -426v-224z" />
    <glyph glyph-name="Z" unicode="Z" horiz-adv-x="578" 
d="M547 0h-516v102l313 429h-296v119h488v-106l-310 -426h321v-118z" />
    <glyph glyph-name="bracketleft" unicode="[" horiz-adv-x="383" 
d="M339 -126h-280v877h280v-119h-114v-641h114v-117z" />
    <glyph glyph-name="backslash" unicode="\" horiz-adv-x="367" 
d="M392 -60h-147l-273 736h150z" />
    <glyph glyph-name="bracketright" unicode="]" horiz-adv-x="383" 
d="M325 -126h-281v117h115v641h-115v119h281v-877z" />
    <glyph glyph-name="asciicircum" unicode="^" horiz-adv-x="689" 
d="M389 653l223 -351h-139l-129 216l-129 -216h-139l223 351h90z" />
    <glyph glyph-name="underscore" unicode="_" horiz-adv-x="433" 
d="M433 -188h-433v117h433v-117z" />
    <glyph glyph-name="grave" unicode="`" horiz-adv-x="443" 
d="M332 520h-116l-116 156h150z" />
    <glyph glyph-name="a" unicode="a" horiz-adv-x="531" 
d="M482 0h-141l-14 47q-48 -57 -148 -57q-62 0 -104 35q-44 36 -44 96q0 170 296 170v11q0 68 -93 68q-65 0 -122 -42l-49 86q85 58 206 58q96 0 152 -45q61 -49 61 -144v-283zM327 214q-142 0 -142 -77q0 -60 66 -60q76 0 76 77v60z" />
    <glyph glyph-name="b" unicode="b" horiz-adv-x="584" 
d="M197 0h-143v650h155v-225q48 47 136 47q95 0 151 -60q57 -62 57 -172q0 -103 -50 -171q-58 -79 -163 -79q-88 0 -134 57zM209 149q22 -57 85 -57q54 0 78 37q22 34 22 110q0 131 -98 131q-64 0 -87 -51v-170z" />
    <glyph glyph-name="c" unicode="c" horiz-adv-x="494" 
d="M475 35q-58 -45 -167 -45q-123 0 -195 62q-74 65 -74 179q0 115 73 179q70 62 193 62q102 0 162 -45l-41 -89q-38 32 -106 32q-56 0 -90 -36q-37 -37 -37 -103q0 -65 38 -103q35 -36 92 -36q74 0 112 32z" />
    <glyph glyph-name="d" unicode="d" horiz-adv-x="584" 
d="M530 0h-143l-9 47q-46 -57 -135 -57q-105 0 -162 74q-50 65 -50 167q0 111 57 177q57 64 150 64q90 0 137 -47v225h155v-650zM375 319q-23 51 -87 51q-99 0 -99 -140q0 -138 101 -138q63 0 85 57v170z" />
    <glyph glyph-name="e" unicode="e" horiz-adv-x="544" 
d="M380 287q-18 83 -101 83q-87 0 -97 -83h198zM488 40q-78 -50 -182 -50q-123 0 -194 62q-73 64 -73 180q0 113 66 177q64 63 176 63q120 0 174 -71q50 -65 50 -200h-324q7 -109 142 -109q67 0 123 38z" />
    <glyph glyph-name="f" unicode="f" horiz-adv-x="381" 
d="M242 0h-154v375h-68v86h68v26q0 171 167 171q64 0 121 -25l-29 -91q-26 14 -48 14q-56 0 -56 -59v-36h111v-86h-112v-375z" />
    <glyph glyph-name="g" unicode="g" horiz-adv-x="584" 
d="M530 25q0 -113 -70 -171q-65 -54 -180 -54q-119 0 -190 47l40 89q61 -34 128 -34q117 0 117 101v30q-46 -43 -136 -43q-93 0 -150 64q-58 65 -58 174q0 106 52 171q57 73 163 73q87 0 132 -56l9 45h143v-436zM375 313q-22 57 -85 57q-55 0 -79 -35q-22 -33 -22 -105
q0 -138 99 -138q64 0 87 50v171z" />
    <glyph glyph-name="h" unicode="h" horiz-adv-x="571" 
d="M539 0h-155v291q0 79 -80 79q-62 0 -95 -51v-319h-155v650h155v-232q60 54 162 54q80 0 124 -44q44 -43 44 -120v-308z" />
    <glyph glyph-name="i" unicode="i" horiz-adv-x="269" 
d="M214 0h-155v461h155v-461zM216 543h-160v107h160v-107z" />
    <glyph glyph-name="j" unicode="j" horiz-adv-x="324" 
d="M269 6q0 -95 -53 -144q-51 -47 -142 -47q-93 0 -160 47l41 88q40 -29 88 -29q71 0 71 87v453h155v-455zM272 543h-160v107h160v-107z" />
    <glyph glyph-name="k" unicode="k" horiz-adv-x="563" 
d="M552 0h-173l-166 240l164 221h166l-176 -223zM209 0h-155v650h155v-650z" />
    <glyph glyph-name="l" unicode="l" horiz-adv-x="263" 
d="M209 0h-155v650h155v-650z" />
    <glyph glyph-name="m" unicode="m" horiz-adv-x="821" 
d="M772 0h-150v293q0 77 -64 77q-52 0 -73 -46q2 -34 2 -55v-269h-140v292q0 75 -61 75q-54 0 -81 -47v-320h-151v461h135l11 -43q49 52 128 52q91 0 126 -56q56 58 161 58q157 0 157 -175v-297z" />
    <glyph glyph-name="n" unicode="n" horiz-adv-x="588" 
d="M539 0h-155v291q0 79 -80 79q-62 0 -95 -51v-319h-155v461h141l11 -44q63 55 165 55q80 0 124 -44q44 -43 44 -120v-308z" />
    <glyph glyph-name="o" unicode="o" horiz-adv-x="577" 
d="M289 92q99 0 99 139t-99 139q-100 0 -100 -139t100 -139zM546 231q0 -115 -66 -178t-191 -63t-192 63q-66 63 -66 178t66 178q67 63 192 63t191 -63t66 -178z" />
    <glyph glyph-name="p" unicode="p" horiz-adv-x="584" 
d="M209 -188h-155v649h143l9 -46q46 57 136 57q106 0 162 -71q49 -64 49 -170q0 -109 -58 -176q-58 -65 -152 -65q-87 0 -134 44v-222zM209 143q23 -51 86 -51q99 0 99 141q0 72 -22 104q-23 33 -78 33q-63 0 -85 -57v-170z" />
    <glyph glyph-name="q" unicode="q" horiz-adv-x="584" 
d="M530 -188h-155v222q-47 -44 -135 -44q-94 0 -151 64q-58 65 -58 175q0 106 51 171q57 72 163 72q88 0 133 -57l9 46h143v-649zM375 313q-22 57 -85 57q-55 0 -79 -35q-22 -33 -22 -105q0 -138 100 -138q63 0 86 51v170z" />
    <glyph glyph-name="r" unicode="r" horiz-adv-x="382" 
d="M209 0h-155v461h139l11 -54q59 65 169 65v-112q-112 0 -164 -51v-309z" />
    <glyph glyph-name="s" unicode="s" horiz-adv-x="476" 
d="M381 339q-64 31 -123 31q-58 0 -58 -34q0 -16 37 -31q10 -4 38 -13q27 -9 43 -16q118 -46 118 -138q0 -147 -224 -147q-102 0 -175 55l41 85q55 -38 132 -38q75 0 75 42q0 19 -37 34q-11 5 -38 14q-29 9 -43 15q-119 47 -119 144q0 65 58 100q51 30 132 30q114 0 185 -48
z" />
    <glyph glyph-name="t" unicode="t" horiz-adv-x="391" 
d="M382 20q-55 -30 -133 -30q-173 0 -173 174v211h-57v86h58l27 136h127v-136h133v-86h-133v-219q0 -64 62 -64q32 0 60 19z" />
    <glyph glyph-name="u" unicode="u" horiz-adv-x="588" 
d="M534 0h-141l-12 45q-58 -55 -155 -55q-82 0 -129 46q-48 47 -48 127v298h155v-289q0 -80 87 -80q58 0 88 51v318h155v-461z" />
    <glyph glyph-name="v" unicode="v" horiz-adv-x="574" 
d="M354 0h-134l-200 461h160l107 -295l107 295h160z" />
    <glyph glyph-name="w" unicode="w" horiz-adv-x="754" 
d="M595 0h-128l-90 284l-90 -284h-128l-134 461h146l62 -286l87 273h114l87 -273l62 286h146z" />
    <glyph glyph-name="x" unicode="x" horiz-adv-x="563" 
d="M538 0h-160l-96 151l-101 -151h-156l172 230l-169 231h161l95 -151l94 151h158l-169 -228z" />
    <glyph glyph-name="y" unicode="y" horiz-adv-x="588" 
d="M279 -175h-147l83 192l-189 445h149l114 -321l120 321h150z" />
    <glyph glyph-name="z" unicode="z" horiz-adv-x="482" 
d="M451 0h-420v82l232 293h-219v86h394v-71l-238 -304h251v-86z" />
    <glyph glyph-name="braceleft" unicode="{" horiz-adv-x="508" 
d="M442 -121h-141q-103 0 -103 81v213q0 34 -27 60q-36 34 -107 35v102q71 1 107 35q27 26 27 60v213q0 81 103 81h141v-90h-70q-37 0 -37 -39v-156q0 -100 -145 -155q145 -55 145 -155v-156q0 -39 37 -39h70v-90z" />
    <glyph glyph-name="bar" unicode="|" horiz-adv-x="304" 
d="M204 -165h-104v852h104v-852z" />
    <glyph glyph-name="braceright" unicode="}" horiz-adv-x="508" 
d="M310 -40q0 -81 -103 -81h-141v90h70q37 0 37 39v156q0 100 145 155q-145 55 -145 155v156q0 39 -37 39h-70v90h141q103 0 103 -81v-213q0 -34 27 -60q36 -34 107 -35v-102q-71 -1 -107 -35q-27 -26 -27 -60v-213z" />
    <glyph glyph-name="asciitilde" unicode="~" horiz-adv-x="707" 
d="M652 429q-2 -268 -172 -268q-66 0 -143 86q-77 85 -106 85q-81 0 -81 -171h-98q1 129 50 200q48 68 128 68t153 -85q71 -85 102 -85q33 0 52 35q20 39 23 135h92z" />
    <glyph glyph-name="exclamdown" unicode="&#xa1;" horiz-adv-x="287" 
d="M226 -189h-168l25 445h118zM221 332h-159v129h159v-129z" />
    <glyph glyph-name="cent" unicode="&#xa2;" horiz-adv-x="510" 
d="M378 -71h-131v66q-97 14 -152 74q-56 62 -56 162q0 101 56 163q54 60 152 74v64h131v-69q52 -9 89 -36l-41 -89q-38 32 -106 32q-56 0 -90 -36q-37 -37 -37 -103q0 -65 38 -103q35 -36 92 -36q74 0 112 32l40 -89q-40 -29 -97 -38v-68z" />
    <glyph glyph-name="sterling" unicode="&#xa3;" horiz-adv-x="540" 
d="M468 24q-59 -34 -113 -34q-31 0 -97 15q-66 14 -99 14q-39 0 -78 -22l-38 93q94 65 94 151q0 12 -1 18h-81v88h57q-41 44 -41 105q0 80 58 129q58 48 151 48q100 0 157 -48q58 -50 60 -139h-117q-3 84 -83 84q-76 0 -76 -80q0 -47 37 -99h149v-88h-130q1 -6 1 -18
q0 -74 -50 -140q30 0 76 -6q45 -6 62 -6q50 0 102 32v-97z" />
    <glyph glyph-name="yen" unicode="&#xa5;" horiz-adv-x="656" 
d="M582 127h-174v-127h-166v127h-172v94h174l-50 107h-124v94h75l-123 228h170l134 -281l132 281h173l-124 -228h75v-94h-124l-51 -107h175v-94z" />
    <glyph glyph-name="section" unicode="&#xa7;" horiz-adv-x="605" 
d="M108 -80q81 -55 181 -55q53 0 85 25q27 21 27 51q0 41 -52 70q-20 11 -115 47q-79 30 -115 59q-52 44 -52 108q0 90 80 140q-83 59 -83 128q0 77 68 122q66 45 178 45q131 0 221 -68l-56 -92q-85 46 -157 46q-91 0 -91 -62q0 -28 50 -54q17 -10 52 -24l59 -26
q160 -73 160 -183q0 -83 -60 -139q63 -36 63 -113q0 -95 -77 -147q-70 -47 -179 -47q-150 0 -243 71zM385 120q33 39 33 73q0 43 -48 73q-30 17 -107 42q-53 -30 -53 -68q0 -36 57 -67q20 -11 56 -27z" />
    <glyph glyph-name="dieresis" unicode="&#xa8;" horiz-adv-x="420" 
d="M161 520h-136v124h136v-124zM395 520h-136v124h136v-124z" />
    <glyph glyph-name="copyright" unicode="&#xa9;" horiz-adv-x="788" 
d="M545 264q-9 -61 -53 -94q-41 -30 -102 -30q-72 0 -119 47q-49 50 -49 132t49 132q47 48 119 48q61 0 102 -31q44 -33 53 -94h-71q-10 57 -83 57q-93 0 -93 -113q0 -111 93 -111q73 0 83 57h71zM712 320q0 -135 -93 -225q-92 -90 -228 -90q-140 0 -230 90q-89 89 -89 225
q0 137 89 227q90 90 230 90t231 -90q90 -90 90 -227zM391 57q115 0 190 75q74 75 74 188q0 115 -72 189q-74 75 -192 75t-191 -75q-72 -74 -72 -189q0 -114 72 -188q73 -75 191 -75z" />
    <glyph glyph-name="ordfeminine" unicode="&#xaa;" horiz-adv-x="363" 
d="M328 339h-97l-10 32q-33 -39 -99 -39q-41 0 -68 24q-30 24 -30 65q0 116 197 116q0 51 -55 51q-54 0 -87 -27l-34 62q56 37 135 37q63 0 102 -27q46 -32 46 -95v-199zM221 483q-91 0 -91 -51q0 -39 38 -39q53 0 53 52v38z" />
    <glyph glyph-name="guillemotleft" unicode="&#xab;" horiz-adv-x="509" 
d="M270 31h-135l-101 191l101 192h135l-97 -192zM475 31h-135l-101 191l101 192h135l-97 -192z" />
    <glyph glyph-name="logicalnot" unicode="&#xac;" horiz-adv-x="492" 
d="M461 99h-115v94h-315v89h430v-183z" />
    <glyph glyph-name="registered" unicode="&#xae;" horiz-adv-x="385" 
d="M275 399h-50l-12 39q-6 20 -27 20h-17v-59h-50v187h76q74 0 74 -62q0 -39 -32 -51q15 -5 22 -28zM191 495q30 0 30 29q0 26 -30 26h-22v-55h22zM192 357q59 0 96 38q36 37 36 95t-36 95t-96 37t-96 -37q-35 -36 -35 -95t35 -95q36 -38 96 -38zM310 376q-46 -46 -118 -46
t-118 46q-44 45 -44 114t44 114q46 46 118 46q73 0 119 -46q44 -45 44 -114t-45 -114z" />
    <glyph glyph-name="macron" unicode="&#xaf;" horiz-adv-x="487" 
d="M487 701h-487v91h487v-91z" />
    <glyph glyph-name="degree" unicode="&#xb0;" horiz-adv-x="311" 
d="M223 592q0 30 -19 49q-19 18 -48 18q-30 0 -49 -18q-19 -19 -19 -49q0 -29 19 -48q19 -18 49 -18q29 0 48 18q19 19 19 48zM281 592q0 -55 -35 -88t-90 -33t-90 33q-36 33 -36 88t36 89q35 33 90 33t90 -33q35 -34 35 -89z" />
    <glyph glyph-name="plusminus" unicode="&#xb1;" horiz-adv-x="616" 
d="M573 273h-192v-151h-147v151h-192v104h192v150h147v-150h192v-104zM573 6h-531v94h531v-94z" />
    <glyph glyph-name="acute" unicode="&#xb4;" horiz-adv-x="443" 
d="M226 520h-116l82 156h150z" />
    <glyph glyph-name="mu" unicode="&#xb5;" horiz-adv-x="599" 
d="M593 15q-77 -25 -121 -25q-56 0 -87 52q-38 -48 -102 -48q-49 0 -75 34v-251h-155v684h155v-286q0 -83 87 -83q58 0 88 51v318h155v-329q0 -29 26 -29q11 0 29 8v-96z" />
    <glyph glyph-name="paragraph" unicode="&#xb6;" horiz-adv-x="510" 
d="M454 -36h-59v633h-75v-633h-89v314q-74 0 -126 40q-66 51 -66 154q0 85 50 139q59 63 173 63h192v-710z" />
    <glyph glyph-name="periodcentered" unicode="&#xb7;" horiz-adv-x="251" 
d="M184 205q-23 -22 -59 -22q-35 0 -58 22q-22 22 -22 58q0 37 23 59q23 23 58 23t57 -23q22 -22 23 -59q0 -36 -22 -58z" />
    <glyph glyph-name="cedilla" unicode="&#xb8;" horiz-adv-x="443" 
d="M246 -35q87 -9 87 -78q0 -108 -142 -108q-43 0 -82 12l9 59q23 -5 41 -5q77 0 77 50q0 42 -80 42l18 70h82z" />
    <glyph glyph-name="ordmasculine" unicode="&#xba;" horiz-adv-x="392" 
d="M195 406q64 0 64 91t-64 91q-63 0 -63 -91t63 -91zM370 497q0 -163 -175 -163t-175 163t175 163t175 -163z" />
    <glyph glyph-name="guillemotright" unicode="&#xbb;" horiz-adv-x="509" 
d="M374 31h-135l97 191l-97 192h135l101 -192zM169 31h-135l97 191l-97 192h135l101 -192z" />
    <glyph glyph-name="questiondown" unicode="&#xbf;" horiz-adv-x="533" 
d="M512 -128q-77 -74 -239 -74q-100 0 -163 40q-70 44 -70 125q0 98 103 165q60 40 71 49q32 29 32 65v36h132v-46q0 -74 -86 -140t-86 -104q0 -65 105 -65q98 0 153 42zM389 332h-156v129h156v-129z" />
    <glyph glyph-name="Agrave" unicode="&#xc0;" horiz-adv-x="699" 
d="M428 243l-81 270l-80 -270h161zM670 0h-173l-39 124h-220l-39 -124h-170l217 650h207zM446 709h-116l-116 156h150z" />
    <glyph glyph-name="Aacute" unicode="&#xc1;" horiz-adv-x="699" 
d="M428 243l-81 270l-80 -270h161zM670 0h-173l-39 124h-220l-39 -124h-170l217 650h207zM378 709h-116l82 156h150z" />
    <glyph glyph-name="Acircumflex" unicode="&#xc2;" horiz-adv-x="699" 
d="M428 243l-81 270l-80 -270h161zM670 0h-173l-39 124h-220l-39 -124h-170l217 650h207zM518 709h-110l-59 96l-59 -96h-110l113 172h112z" />
    <glyph glyph-name="Atilde" unicode="&#xc3;" horiz-adv-x="699" 
d="M428 243l-81 270l-80 -270h161zM670 0h-173l-39 124h-220l-39 -124h-170l217 650h207zM532 776q-45 -66 -113 -66q-18 0 -65 23q-47 22 -74 22q-44 0 -80 -48l-34 71q28 68 108 68q29 0 80 -21q50 -22 66 -22q46 0 65 41z" />
    <glyph glyph-name="Adieresis" unicode="&#xc4;" horiz-adv-x="699" 
d="M428 243l-81 270l-80 -270h161zM670 0h-173l-39 124h-220l-39 -124h-170l217 650h207zM300 709h-136v124h136v-124zM534 709h-136v124h136v-124z" />
    <glyph glyph-name="Aring" unicode="&#xc5;" horiz-adv-x="699" 
d="M428 243l-81 270l-80 -270h161zM670 0h-173l-39 124h-220l-39 -124h-170l217 650h207zM349 737q24 0 39 16q15 15 15 38t-15 38q-15 16 -39 16t-39 -16q-15 -15 -15 -38t15 -38q15 -16 39 -16zM473 791q0 -51 -34 -86q-36 -36 -90 -36t-90 36q-34 35 -34 86t34 86
q36 36 90 36t90 -36q34 -35 34 -86z" />
    <glyph glyph-name="AE" unicode="&#xc6;" horiz-adv-x="851" 
d="M819 0h-436v124h-147l-51 -124h-170l261 650h543v-119h-270v-146h215v-119h-215v-148h270v-118zM383 243v298l-118 -298h118z" />
    <glyph glyph-name="Ccedilla" unicode="&#xc7;" horiz-adv-x="623" 
d="M584 52q-70 -56 -197 -61l-6 -28q87 -9 87 -78q0 -108 -142 -108q-43 0 -82 12l9 59q23 -5 41 -5q77 0 77 50q0 42 -80 42l15 59q-126 16 -196 103q-71 88 -71 226q0 153 86 245q87 92 233 92q139 0 217 -60l-61 -103q-53 41 -135 41q-74 0 -124 -58q-53 -60 -53 -157
t51 -155q50 -56 131 -56q84 0 144 47z" />
    <glyph glyph-name="Egrave" unicode="&#xc8;" horiz-adv-x="529" 
d="M494 0h-440v650h440v-119h-274v-146h210v-119h-210v-148h274v-118zM380 709h-116l-116 156h150z" />
    <glyph glyph-name="Eacute" unicode="&#xc9;" horiz-adv-x="529" 
d="M494 0h-440v650h440v-119h-274v-146h210v-119h-210v-148h274v-118zM264 709h-116l82 156h150z" />
    <glyph glyph-name="Ecircumflex" unicode="&#xca;" horiz-adv-x="529" 
d="M494 0h-440v650h440v-119h-274v-146h210v-119h-210v-148h274v-118zM433 709h-110l-59 96l-59 -96h-110l113 172h112z" />
    <glyph glyph-name="Edieresis" unicode="&#xcb;" horiz-adv-x="529" 
d="M494 0h-440v650h440v-119h-274v-146h210v-119h-210v-148h274v-118zM215 709h-136v124h136v-124zM449 709h-136v124h136v-124z" />
    <glyph glyph-name="Igrave" unicode="&#xcc;" horiz-adv-x="274" 
d="M220 0h-166v650h166v-650zM232 709h-116l-116 156h150z" />
    <glyph glyph-name="Iacute" unicode="&#xcd;" horiz-adv-x="274" 
d="M220 0h-166v650h166v-650zM166 709h-116l82 156h150z" />
    <glyph glyph-name="Icircumflex" unicode="&#xce;" horiz-adv-x="274" 
d="M220 0h-166v650h166v-650zM313 709h-110l-59 96l-59 -96h-110l113 172h112z" />
    <glyph glyph-name="Idieresis" unicode="&#xcf;" horiz-adv-x="274" 
d="M220 0h-166v650h166v-650zM88 709h-136v124h136v-124zM322 709h-136v124h136v-124z" />
    <glyph glyph-name="Ntilde" unicode="&#xd1;" horiz-adv-x="658" 
d="M604 0h-151l-234 393v-393h-165v650h155l230 -402v402h165v-650zM512 776q-45 -66 -113 -66q-18 0 -65 23q-47 22 -74 22q-44 0 -80 -48l-34 71q28 68 108 68q29 0 80 -21q50 -22 66 -22q46 0 65 41z" />
    <glyph glyph-name="Ograve" unicode="&#xd2;" horiz-adv-x="693" 
d="M346 112q145 0 145 213t-145 213q-144 0 -144 -213t144 -213zM572 78q-82 -88 -226 -88q-143 0 -225 88q-82 89 -82 247t82 247q82 88 225 88q144 0 226 -88q82 -89 82 -247t-82 -247zM462 709h-116l-116 156h150z" />
    <glyph glyph-name="Oacute" unicode="&#xd3;" horiz-adv-x="693" 
d="M346 112q145 0 145 213t-145 213q-144 0 -144 -213t144 -213zM572 78q-82 -88 -226 -88q-143 0 -225 88q-82 89 -82 247t82 247q82 88 225 88q144 0 226 -88q82 -89 82 -247t-82 -247zM346 709h-116l82 156h150z" />
    <glyph glyph-name="Ocircumflex" unicode="&#xd4;" horiz-adv-x="693" 
d="M346 112q145 0 145 213t-145 213q-144 0 -144 -213t144 -213zM572 78q-82 -88 -226 -88q-143 0 -225 88q-82 89 -82 247t82 247q82 88 225 88q144 0 226 -88q82 -89 82 -247t-82 -247zM515 709h-110l-59 96l-59 -96h-110l113 172h112z" />
    <glyph glyph-name="Otilde" unicode="&#xd5;" horiz-adv-x="693" 
d="M346 112q145 0 145 213t-145 213q-144 0 -144 -213t144 -213zM572 78q-82 -88 -226 -88q-143 0 -225 88q-82 89 -82 247t82 247q82 88 225 88q144 0 226 -88q82 -89 82 -247t-82 -247zM529 776q-45 -66 -113 -66q-18 0 -65 23q-47 22 -74 22q-44 0 -80 -48l-34 71
q28 68 108 68q29 0 80 -21q50 -22 66 -22q46 0 65 41z" />
    <glyph glyph-name="Odieresis" unicode="&#xd6;" horiz-adv-x="693" 
d="M346 112q145 0 145 213t-145 213q-144 0 -144 -213t144 -213zM572 78q-82 -88 -226 -88q-143 0 -225 88q-82 89 -82 247t82 247q82 88 225 88q144 0 226 -88q82 -89 82 -247t-82 -247zM297 709h-136v124h136v-124zM531 709h-136v124h136v-124z" />
    <glyph glyph-name="Oslash" unicode="&#xd8;" horiz-adv-x="693" 
d="M193 -42h-82l46 88q-118 85 -118 279q0 158 82 247q82 88 225 88q65 0 119 -20l24 48h84l-42 -81q123 -86 123 -282q0 -158 -82 -247q-82 -88 -226 -88q-67 0 -127 22zM404 527q-25 11 -58 11q-144 0 -144 -213q0 -93 32 -137zM282 125q31 -13 64 -13q145 0 145 213
q0 96 -34 146z" />
    <glyph glyph-name="Ugrave" unicode="&#xd9;" horiz-adv-x="647" 
d="M598 222q0 -114 -75 -174q-71 -58 -199 -58t-200 58q-75 60 -75 174v428h166v-413q0 -126 109 -126q108 0 108 126v413h166v-428zM439 709h-116l-116 156h150z" />
    <glyph glyph-name="Uacute" unicode="&#xda;" horiz-adv-x="647" 
d="M598 222q0 -114 -75 -174q-71 -58 -199 -58t-200 58q-75 60 -75 174v428h166v-413q0 -126 109 -126q108 0 108 126v413h166v-428zM323 709h-116l82 156h150z" />
    <glyph glyph-name="Ucircumflex" unicode="&#xdb;" horiz-adv-x="647" 
d="M598 222q0 -114 -75 -174q-71 -58 -199 -58t-200 58q-75 60 -75 174v428h166v-413q0 -126 109 -126q108 0 108 126v413h166v-428zM492 709h-110l-59 96l-59 -96h-110l113 172h112z" />
    <glyph glyph-name="Udieresis" unicode="&#xdc;" horiz-adv-x="647" 
d="M598 222q0 -114 -75 -174q-71 -58 -199 -58t-200 58q-75 60 -75 174v428h166v-413q0 -126 109 -126q108 0 108 126v413h166v-428zM274 709h-136v124h136v-124zM508 709h-136v124h136v-124z" />
    <glyph glyph-name="uni00DF" unicode="&#xdf;" horiz-adv-x="678" 
d="M217 -60q0 -74 -36 -145l-142 28q29 64 29 117v441q0 270 267 270q139 0 206 -57q51 -44 51 -112q0 -61 -41 -98t-41 -54q0 -8 69 -61q68 -53 68 -126q0 -67 -63 -111q-61 -42 -147 -42q-93 0 -151 55l45 87q26 -29 79 -29q81 0 81 61q0 31 -70 76q-71 46 -71 91
q0 44 42 79q41 34 41 59q0 69 -102 69q-55 0 -85 -43q-29 -41 -29 -115v-440z" />
    <glyph glyph-name="agrave" unicode="&#xe0;" horiz-adv-x="531" 
d="M482 0h-141l-14 47q-48 -57 -148 -57q-62 0 -104 35q-44 36 -44 96q0 170 296 170v11q0 68 -93 68q-65 0 -122 -42l-49 86q85 58 206 58q96 0 152 -45q61 -49 61 -144v-283zM327 214q-142 0 -142 -77q0 -60 66 -60q76 0 76 77v60zM381 520h-116l-116 156h150z" />
    <glyph glyph-name="aacute" unicode="&#xe1;" horiz-adv-x="531" 
d="M482 0h-141l-14 47q-48 -57 -148 -57q-62 0 -104 35q-44 36 -44 96q0 170 296 170v11q0 68 -93 68q-65 0 -122 -42l-49 86q85 58 206 58q96 0 152 -45q61 -49 61 -144v-283zM327 214q-142 0 -142 -77q0 -60 66 -60q76 0 76 77v60zM290 520h-116l82 156h150z" />
    <glyph glyph-name="acircumflex" unicode="&#xe2;" horiz-adv-x="531" 
d="M482 0h-141l-14 47q-48 -57 -148 -57q-62 0 -104 35q-44 36 -44 96q0 170 296 170v11q0 68 -93 68q-65 0 -122 -42l-49 86q85 58 206 58q96 0 152 -45q61 -49 61 -144v-283zM327 214q-142 0 -142 -77q0 -60 66 -60q76 0 76 77v60zM434 520h-110l-59 96l-59 -96h-110
l113 172h112z" />
    <glyph glyph-name="atilde" unicode="&#xe3;" horiz-adv-x="531" 
d="M482 0h-141l-14 47q-48 -57 -148 -57q-62 0 -104 35q-44 36 -44 96q0 170 296 170v11q0 68 -93 68q-65 0 -122 -42l-49 86q85 58 206 58q96 0 152 -45q61 -49 61 -144v-283zM327 214q-142 0 -142 -77q0 -60 66 -60q76 0 76 77v60zM448 587q-45 -66 -113 -66q-18 0 -65 23
q-47 22 -74 22q-44 0 -80 -48l-34 71q28 68 108 68q29 0 80 -21q50 -22 66 -22q46 0 65 41z" />
    <glyph glyph-name="adieresis" unicode="&#xe4;" horiz-adv-x="531" 
d="M482 0h-141l-14 47q-48 -57 -148 -57q-62 0 -104 35q-44 36 -44 96q0 170 296 170v11q0 68 -93 68q-65 0 -122 -42l-49 86q85 58 206 58q96 0 152 -45q61 -49 61 -144v-283zM327 214q-142 0 -142 -77q0 -60 66 -60q76 0 76 77v60zM216 520h-136v124h136v-124zM450 520
h-136v124h136v-124z" />
    <glyph glyph-name="aring" unicode="&#xe5;" horiz-adv-x="531" 
d="M482 0h-141l-14 47q-48 -57 -148 -57q-62 0 -104 35q-44 36 -44 96q0 170 296 170v11q0 68 -93 68q-65 0 -122 -42l-49 86q85 58 206 58q96 0 152 -45q61 -49 61 -144v-283zM327 214q-142 0 -142 -77q0 -60 66 -60q76 0 76 77v60zM281 559q24 0 39 16q15 15 15 38t-15 38
q-15 16 -39 16t-39 -16q-15 -15 -15 -38t15 -38q15 -16 39 -16zM405 613q0 -51 -34 -86q-36 -36 -90 -36t-90 36q-34 35 -34 86t34 86q36 36 90 36t90 -36q34 -35 34 -86z" />
    <glyph glyph-name="ae" unicode="&#xe6;" horiz-adv-x="792" 
d="M735 40q-76 -50 -181 -50q-120 0 -173 53q-52 -53 -176 -53q-80 0 -128 39q-46 38 -46 100q0 152 261 160q7 35 17 57q-21 24 -75 24q-65 0 -122 -42l-49 86q85 58 206 58q84 0 130 -43q53 43 130 43q120 0 174 -71q50 -65 50 -200h-324q7 -109 141 -109q68 0 123 38z
M627 287q-2 83 -93 83q-94 0 -104 -83h197zM251 77q45 0 66 26q-24 42 -30 107q-102 -8 -102 -73q0 -60 66 -60z" />
    <glyph glyph-name="ccedilla" unicode="&#xe7;" horiz-adv-x="495" 
d="M470 35q-53 -41 -159 -45l-8 -31q34 -4 58 -22q31 -22 31 -59q0 -49 -43 -78q-39 -26 -95 -26q-43 0 -82 12l9 56q23 -5 41 -5q77 0 77 48q0 44 -80 44l17 67q-94 15 -147 75q-55 62 -55 160q0 115 73 179q70 62 193 62q102 0 162 -45l-41 -89q-38 32 -106 32
q-56 0 -90 -36q-37 -37 -37 -103q0 -65 38 -103q35 -36 92 -36q74 0 112 32z" />
    <glyph glyph-name="egrave" unicode="&#xe8;" horiz-adv-x="544" 
d="M380 287q-18 83 -101 83q-87 0 -97 -83h198zM488 40q-78 -50 -182 -50q-123 0 -194 62q-73 64 -73 180q0 113 66 177q64 63 176 63q120 0 174 -71q50 -65 50 -200h-324q7 -109 142 -109q67 0 123 38zM390 520h-116l-116 156h150z" />
    <glyph glyph-name="eacute" unicode="&#xe9;" horiz-adv-x="544" 
d="M322 520h-116l82 156h150zM380 287q-18 83 -101 83q-87 0 -97 -83h198zM488 40q-78 -50 -182 -50q-123 0 -194 62q-73 64 -73 180q0 113 66 177q64 63 176 63q120 0 174 -71q50 -65 50 -200h-324q7 -109 142 -109q67 0 123 38z" />
    <glyph glyph-name="ecircumflex" unicode="&#xea;" horiz-adv-x="544" 
d="M380 287q-18 83 -101 83q-87 0 -97 -83h198zM488 40q-78 -50 -182 -50q-123 0 -194 62q-73 64 -73 180q0 113 66 177q64 63 176 63q120 0 174 -71q50 -65 50 -200h-324q7 -109 142 -109q67 0 123 38zM441 520h-110l-59 96l-59 -96h-110l113 172h112z" />
    <glyph glyph-name="edieresis" unicode="&#xeb;" horiz-adv-x="544" 
d="M223 520h-136v124h136v-124zM457 520h-136v124h136v-124zM380 287q-18 83 -101 83q-87 0 -97 -83h198zM488 40q-78 -50 -182 -50q-123 0 -194 62q-73 64 -73 180q0 113 66 177q64 63 176 63q120 0 174 -71q50 -65 50 -200h-324q7 -109 142 -109q67 0 123 38z" />
    <glyph glyph-name="igrave" unicode="&#xec;" horiz-adv-x="269" 
d="M214 0h-155v461h155v-461zM231 520h-116l-116 156h150z" />
    <glyph glyph-name="iacute" unicode="&#xed;" horiz-adv-x="269" 
d="M214 0h-155v461h155v-461zM165 520h-116l82 156h150z" />
    <glyph glyph-name="icircumflex" unicode="&#xee;" horiz-adv-x="269" 
d="M214 0h-155v461h155v-461zM311 520h-110l-59 96l-59 -96h-110l113 172h112z" />
    <glyph glyph-name="idieresis" unicode="&#xef;" horiz-adv-x="269" 
d="M214 0h-155v461h155v-461zM86 520h-136v124h136v-124zM320 520h-136v124h136v-124z" />
    <glyph glyph-name="ntilde" unicode="&#xf1;" horiz-adv-x="588" 
d="M539 0h-155v291q0 79 -80 79q-62 0 -95 -51v-319h-155v461h141l11 -44q63 55 165 55q80 0 124 -44q44 -43 44 -120v-308zM477 587q-45 -66 -113 -66q-18 0 -65 23q-47 22 -74 22q-44 0 -80 -48l-34 71q28 68 108 68q29 0 80 -21q50 -22 66 -22q46 0 65 41z" />
    <glyph glyph-name="ograve" unicode="&#xf2;" horiz-adv-x="577" 
d="M289 92q99 0 99 139t-99 139q-100 0 -100 -139t100 -139zM546 231q0 -115 -66 -178t-191 -63t-192 63q-66 63 -66 178t66 178q67 63 192 63t191 -63t66 -178zM404 520h-116l-116 156h150z" />
    <glyph glyph-name="oacute" unicode="&#xf3;" horiz-adv-x="577" 
d="M289 92q99 0 99 139t-99 139q-100 0 -100 -139t100 -139zM546 231q0 -115 -66 -178t-191 -63t-192 63q-66 63 -66 178t66 178q67 63 192 63t191 -63t66 -178zM288 520h-116l82 156h150z" />
    <glyph glyph-name="ocircumflex" unicode="&#xf4;" horiz-adv-x="577" 
d="M289 92q99 0 99 139t-99 139q-100 0 -100 -139t100 -139zM546 231q0 -115 -66 -178t-191 -63t-192 63q-66 63 -66 178t66 178q67 63 192 63t191 -63t66 -178zM457 520h-110l-59 96l-59 -96h-110l113 172h112z" />
    <glyph glyph-name="otilde" unicode="&#xf5;" horiz-adv-x="577" 
d="M289 92q99 0 99 139t-99 139q-100 0 -100 -139t100 -139zM546 231q0 -115 -66 -178t-191 -63t-192 63q-66 63 -66 178t66 178q67 63 192 63t191 -63t66 -178zM471 587q-45 -66 -113 -66q-18 0 -65 23q-47 22 -74 22q-44 0 -80 -48l-34 71q28 68 108 68q29 0 80 -21
q50 -22 66 -22q46 0 65 41z" />
    <glyph glyph-name="odieresis" unicode="&#xf6;" horiz-adv-x="577" 
d="M289 92q99 0 99 139t-99 139q-100 0 -100 -139t100 -139zM546 231q0 -115 -66 -178t-191 -63t-192 63q-66 63 -66 178t66 178q67 63 192 63t191 -63t66 -178zM239 520h-136v124h136v-124zM473 520h-136v124h136v-124z" />
    <glyph glyph-name="divide" unicode="&#xf7;" horiz-adv-x="596" 
d="M489 183h-384v115h384v-115zM362 339h-128v130h128v-130zM362 12h-128v130h128v-130z" />
    <glyph glyph-name="oslash" unicode="&#xf8;" horiz-adv-x="570" 
d="M182 -38h-82l32 62q-103 61 -103 206q0 115 66 177q67 63 190 63q44 0 75 -8l21 43h84l-34 -67q111 -57 111 -208q0 -115 -67 -177q-66 -63 -190 -63q-44 0 -85 11zM254 98q11 -6 31 -6q98 0 98 138q0 51 -22 81zM307 365q-10 3 -22 3q-97 0 -97 -138q0 -45 15 -74z" />
    <glyph glyph-name="ugrave" unicode="&#xf9;" horiz-adv-x="588" 
d="M534 0h-141l-12 45q-58 -55 -155 -55q-82 0 -129 46q-48 47 -48 127v298h155v-289q0 -80 87 -80q58 0 88 51v318h155v-461zM410 520h-116l-116 156h150z" />
    <glyph glyph-name="uacute" unicode="&#xfa;" horiz-adv-x="588" 
d="M534 0h-141l-12 45q-58 -55 -155 -55q-82 0 -129 46q-48 47 -48 127v298h155v-289q0 -80 87 -80q58 0 88 51v318h155v-461zM294 520h-116l82 156h150z" />
    <glyph glyph-name="ucircumflex" unicode="&#xfb;" horiz-adv-x="588" 
d="M534 0h-141l-12 45q-58 -55 -155 -55q-82 0 -129 46q-48 47 -48 127v298h155v-289q0 -80 87 -80q58 0 88 51v318h155v-461zM463 520h-110l-59 96l-59 -96h-110l113 172h112z" />
    <glyph glyph-name="udieresis" unicode="&#xfc;" horiz-adv-x="588" 
d="M534 0h-141l-12 45q-58 -55 -155 -55q-82 0 -129 46q-48 47 -48 127v298h155v-289q0 -80 87 -80q58 0 88 51v318h155v-461zM245 520h-136v124h136v-124zM479 520h-136v124h136v-124z" />
    <glyph glyph-name="ydieresis" unicode="&#xff;" horiz-adv-x="588" 
d="M279 -175h-147l83 192l-189 445h149l114 -321l120 321h150zM245 520h-136v124h136v-124zM479 520h-136v124h136v-124z" />
    <glyph glyph-name="dotlessi" unicode="&#x131;" horiz-adv-x="269" 
d="M214 0h-155v461h155v-461z" />
    <glyph glyph-name="OE" unicode="&#x152;" horiz-adv-x="955" 
d="M923 0h-439v55q-61 -65 -173 -65q-117 0 -194 88q-80 93 -80 247t80 247q77 88 194 88q113 0 173 -65v55h439v-119h-273v-140h218v-119h-218v-154h273v-118zM345 112q145 0 145 213t-145 213t-145 -213t145 -213z" />
    <glyph glyph-name="oe" unicode="&#x153;" horiz-adv-x="837" 
d="M784 39q-76 -49 -181 -49q-95 0 -160 41q-61 -41 -158 -41q-123 0 -190 63q-66 62 -66 177t66 177q67 63 190 63q91 0 152 -38q57 40 141 40q119 0 173 -70q50 -65 50 -199h-322q7 -111 141 -111q68 0 122 38zM285 92q47 0 71 35q-19 44 -19 105q0 62 18 104
q-26 32 -70 32q-97 0 -97 -138t97 -138zM674 289q-1 39 -27 61q-25 20 -64 20q-93 0 -103 -81h194z" />
    <glyph glyph-name="Ydieresis" unicode="&#x178;" horiz-adv-x="666" 
d="M415 0h-166v224l-221 426h170l134 -291l134 291h172l-223 -426v-224zM284 709h-136v124h136v-124zM518 709h-136v124h136v-124z" />
    <glyph glyph-name="florin" unicode="&#x192;" horiz-adv-x="352" 
d="M181 4q-11 -57 -56 -88q-42 -28 -99 -28q-82 0 -138 53l42 63q27 -22 63 -22q44 0 52 35l70 325h-93l17 71h92l19 81q24 112 140 112q56 0 110 -30l-24 -67q-22 9 -43 9q-40 0 -49 -39l-16 -66h104l-16 -71h-102z" />
    <glyph glyph-name="circumflex" unicode="&#x2c6;" horiz-adv-x="420" 
d="M379 520h-110l-59 96l-59 -96h-110l113 172h112z" />
    <glyph glyph-name="caron" unicode="&#x2c7;" horiz-adv-x="443" 
d="M278 520h-112l-113 177h112l57 -98l57 98h112z" />
    <glyph glyph-name="breve" unicode="&#x2d8;" horiz-adv-x="443" 
d="M369 642q-22 -131 -164 -131t-164 131h96q8 -54 68 -54q61 0 68 54h96z" />
    <glyph glyph-name="dotaccent" unicode="&#x2d9;" horiz-adv-x="443" 
d="M295 564h-148v131h148v-131z" />
    <glyph glyph-name="ring" unicode="&#x2da;" horiz-adv-x="443" 
d="M275 613q0 23 -15 38q-15 16 -39 16t-39 -16q-15 -15 -15 -38t15 -38q15 -16 39 -16t39 16q15 15 15 38zM345 613q0 -51 -34 -86q-36 -36 -90 -36t-90 36q-34 35 -34 86t34 86q36 36 90 36t90 -36q34 -35 34 -86z" />
    <glyph glyph-name="ogonek" unicode="&#x2db;" horiz-adv-x="443" 
d="M344 -207q-58 -23 -122 -21q-132 0 -132 116q0 66 55 115h117q-54 -53 -54 -96q0 -55 60 -55q34 0 76 17v-76z" />
    <glyph glyph-name="tilde" unicode="&#x2dc;" horiz-adv-x="443" 
d="M404 587q-45 -66 -113 -66q-18 0 -65 23q-47 22 -74 22q-44 0 -80 -48l-34 71q28 68 108 68q29 0 80 -21q50 -22 66 -22q46 0 65 41z" />
    <glyph glyph-name="hungarumlaut" unicode="&#x2dd;" horiz-adv-x="443" 
d="M124 520h-106l82 156h140zM312 520h-106l82 156h140z" />
    <glyph glyph-name="endash" unicode="&#x2013;" horiz-adv-x="577" 
d="M527 198h-477v109h477v-109z" />
    <glyph glyph-name="emdash" unicode="&#x2014;" horiz-adv-x="732" 
d="M682 198h-632v110h632v-110z" />
    <glyph glyph-name="quoteleft" unicode="&#x2018;" horiz-adv-x="304" 
d="M199 412h-160l122 296h104z" />
    <glyph glyph-name="quoteright" unicode="&#x2019;" horiz-adv-x="304" 
d="M143 412h-104l67 296h159z" />
    <glyph glyph-name="quotesinglbase" unicode="&#x201a;" horiz-adv-x="304" 
d="M143 -170l-103 5l59 292h164z" />
    <glyph glyph-name="quotedblleft" unicode="&#x201c;" horiz-adv-x="505" 
d="M400 412h-160l122 296h104zM199 412h-160l122 296h104z" />
    <glyph glyph-name="quotedblright" unicode="&#x201d;" horiz-adv-x="505" 
d="M143 412h-104l67 296h159zM344 412h-104l66 296h160z" />
    <glyph glyph-name="quotedblbase" unicode="&#x201e;" horiz-adv-x="505" 
d="M143 -169h-104l67 296h159zM344 -169h-104l66 296h160z" />
    <glyph glyph-name="dagger" unicode="&#x2020;" horiz-adv-x="464" 
d="M307 0h-147v432h-116v104h116v160h147v-160h113v-104h-113v-432z" />
    <glyph glyph-name="daggerdbl" unicode="&#x2021;" horiz-adv-x="464" 
d="M307 0h-147v178h-116v106h116v148h-116v104h116v160h147v-160h113v-104h-113v-148h113v-106h-113v-178z" />
    <glyph glyph-name="bullet" unicode="&#x2022;" horiz-adv-x="390" 
d="M342 271q0 -67 -40 -107t-107 -40t-107 40t-40 107q0 68 40 108t107 40t107 -40q40 -41 40 -108z" />
    <glyph glyph-name="ellipsis" unicode="&#x2026;" horiz-adv-x="793" 
d="M212 0h-159v161h159v-161zM476 0h-159v161h159v-161zM740 0h-159v161h159v-161z" />
    <glyph glyph-name="perthousand" unicode="&#x2030;" horiz-adv-x="1454" 
d="M414 0h-140l342 650h138zM227 336q74 0 74 118t-74 118t-74 -118t74 -118zM369 301q-51 -52 -142 -52t-142 52q-53 53 -53 153t53 154q51 51 142 51t142 -51q53 -54 53 -154t-53 -153zM796 75q74 0 74 118t-74 118t-74 -118t74 -118zM938 40q-51 -52 -142 -52t-142 52
q-53 53 -53 153t53 154q51 51 142 51t142 -51q53 -54 53 -154t-53 -153zM1228 75q74 0 74 118t-74 118t-74 -118t74 -118zM1422 193q0 -100 -53 -153q-50 -52 -141 -52t-142 52q-53 53 -53 153t53 154q51 51 142 51t141 -51q53 -54 53 -154z" />
    <glyph glyph-name="guilsinglleft" unicode="&#x2039;" horiz-adv-x="310" 
d="M276 31h-135l-107 191l107 192h135l-103 -192z" />
    <glyph glyph-name="guilsinglright" unicode="&#x203a;" horiz-adv-x="310" 
d="M169 31h-135l103 191l-103 192h135l107 -192z" />
    <glyph glyph-name="fraction" unicode="&#x2044;" horiz-adv-x="144" 
d="M-4 0h-92l248 651h88z" />
    <glyph glyph-name="Euro" unicode="&#x20ac;" horiz-adv-x="550" 
d="M506 52q-77 -65 -188 -65q-102 0 -170 60q-66 57 -87 161h-63l26 55h29q-1 13 -1 41q0 25 1 37h-55l26 55h36q20 105 87 165q69 61 171 61q111 0 188 -65l-41 -99q-52 42 -127 42q-101 0 -133 -104h242l-26 -55h-228q-1 -12 -1 -37q0 -28 1 -41h204l-26 -55h-165
q33 -99 132 -99q75 0 127 42z" />
    <glyph glyph-name="trademark" unicode="&#x2122;" horiz-adv-x="632" 
d="M181 426h-81v168h-68v56h215v-56h-66v-168zM590 426h-79v137l-56 -99h-34l-55 99v-137h-82v224h99l55 -109l58 109h94v-224z" />
    <glyph glyph-name="Ohm" unicode="&#x2126;" horiz-adv-x="696" 
d="M502 83h160v-83h-250v140q63 27 100 89q35 59 35 131q0 94 -60 151q-55 53 -139 53t-140 -53q-59 -56 -59 -151q0 -72 35 -131q36 -62 99 -89v-140h-249v83h160v22q-146 86 -146 260q0 134 89 210q83 70 211 70t211 -70q89 -76 89 -210q0 -174 -146 -260v-22z" />
    <glyph glyph-name="partialdiff" unicode="&#x2202;" horiz-adv-x="496" 
d="M82 535q64 166 204 166q84 0 128 -77q40 -70 40 -189q0 -182 -61 -306q-73 -144 -206 -144q-76 0 -119 47q-42 45 -42 119q0 100 79 179q91 91 249 105q0 38 -4 61q-3 117 -74 117q-77 0 -119 -115zM295 162q47 91 56 208q-103 -13 -171 -82q-61 -63 -61 -132
q0 -85 79 -85q50 0 97 91z" />
    <glyph glyph-name="Delta" unicode="&#x2206;" horiz-adv-x="645" 
d="M629 0h-612l314 597zM435 81l-139 320l-161 -320h300z" />
    <glyph glyph-name="product" unicode="&#x220f;" horiz-adv-x="659" 
d="M604 -125h-122v648h-306v-648h-120v754h548v-754z" />
    <glyph glyph-name="summation" unicode="&#x2211;" horiz-adv-x="639" 
d="M594 -135h-549v76l300 306l-300 306v76h549v-95h-383l259 -264v-46l-258 -264h382v-95z" />
    <glyph glyph-name="radical" unicode="&#x221a;" horiz-adv-x="510" 
d="M302 12h-102l-103 276h-79v80h148l83 -236l178 570h95z" />
    <glyph glyph-name="infinity" unicode="&#x221e;" horiz-adv-x="839" 
d="M235 218q56 0 124 79q-74 72 -125 72q-37 0 -61 -23q-22 -22 -22 -48q0 -80 84 -80zM784 288q0 -71 -52 -115q-40 -41 -125 -41q-108 0 -190 99q-84 -99 -183 -99q-79 0 -128 45q-51 46 -51 122q0 64 46 108q49 47 131 47q104 0 192 -99q83 99 182 99q79 0 128 -45
q50 -46 50 -121zM606 215q36 0 60 24q21 23 21 51q0 76 -83 76q-68 0 -124 -76q72 -75 126 -75z" />
    <glyph glyph-name="integral" unicode="&#x222b;" horiz-adv-x="417" 
d="M11 -56q18 -5 42 -5q69 0 85 142q6 51 18 209q11 147 21 226q24 193 178 193q31 0 59 -7l-19 -79q-15 3 -33 3q-77 0 -89 -135q-4 -41 -18 -211q-12 -160 -22 -246q-9 -83 -51 -131q-46 -51 -121 -51q-46 0 -69 10z" />
    <glyph glyph-name="approxequal" unicode="&#x2248;" horiz-adv-x="596" 
d="M547 342q-57 -86 -143 -86q-45 0 -118 34q-72 34 -115 34q-51 0 -101 -56l-41 66q58 81 145 81q50 0 120 -33q69 -34 111 -34q39 0 97 58zM547 146q-57 -87 -143 -87q-46 0 -118 34q-73 34 -115 34q-52 0 -101 -55l-41 66q58 81 145 81q50 0 119 -33q70 -34 112 -34
q37 0 97 57z" />
    <glyph glyph-name="notequal" unicode="&#x2260;" horiz-adv-x="596" 
d="M511 97h-243l-41 -87h-103l41 87h-80v110h134l51 107h-185v111h240l45 92h103l-45 -92h83v-111h-137l-51 -107h188v-110z" />
    <glyph glyph-name="lessequal" unicode="&#x2264;" horiz-adv-x="596" 
d="M510 124l-424 164v78l424 163v-96l-272 -106l272 -106v-97zM510 7h-424v93h424v-93z" />
    <glyph glyph-name="greaterequal" unicode="&#x2265;" horiz-adv-x="596" 
d="M510 288l-424 -164v97l272 106l-272 106v96l424 -163v-78zM510 7h-424v93h424v-93z" />
    <glyph glyph-name="lozenge" unicode="&#x25ca;" horiz-adv-x="507" 
d="M253 117l124 193l-124 193l-123 -193zM281 3h-55l-198 307l198 307h55l198 -307z" />
    <glyph glyph-name="uni0E33.alt1" horiz-adv-x="444" 
d="M395 0h-155v366q0 82 -79 82q-62 0 -108 -39l-44 94q69 47 183 47q203 0 203 -190v-360zM-248 702q0 -45 -34 -71q-32 -24 -81 -24t-81 24q-34 26 -34 71t34 72q33 26 81 26t81 -26q34 -27 34 -72zM-363 668q36 0 36 34t-36 34q-37 0 -37 -34t37 -34z" />
    <glyph glyph-name=".null" 
 />
    <glyph glyph-name=".null" 
 />
    <glyph glyph-name="nonmarkingreturn" unicode="&#xd;" horiz-adv-x="240" 
 />
    <glyph glyph-name="uni0E4E.alt1" 
d="M-274 623h-137q-87 0 -87 67q0 57 75 69q-30 24 -30 52q0 29 24 48q26 21 65 21h162v-55h-83q-38 0 -38 -20q0 -22 30 -22h27v-51h-64q-45 0 -45 -32q0 -26 36 -26h65v-51z" />
    <glyph glyph-name="currency" unicode="&#xa4;" horiz-adv-x="464" 
d="M425 92l-47 -47l-37 34q-40 -34 -109 -34t-109 34l-37 -34l-47 47l39 36q-29 44 -29 95q0 52 30 96l-40 38l47 47l38 -36q42 34 108 34t108 -33l38 35l47 -47l-40 -37q30 -44 30 -97q0 -54 -29 -95zM126 223q0 -48 30 -77q29 -30 76 -30t76 30q30 29 30 77t-30 78
q-29 29 -76 29t-76 -29q-30 -30 -30 -78z" />
    <glyph glyph-name="brokenbar" unicode="&#xa6;" horiz-adv-x="230" 
d="M178 346h-126v375h126v-375zM178 -143h-126v386h126v-386z" />
    <glyph glyph-name="twosuperior" unicode="&#xb2;" horiz-adv-x="297" 
d="M274 339h-246v51q0 58 76 102q76 43 76 69q0 30 -55 30q-40 0 -74 -21l-24 62q51 28 117 28q130 0 130 -99q0 -55 -66 -95q-68 -42 -71 -62h137v-65z" />
    <glyph glyph-name="threesuperior" unicode="&#xb3;" horiz-adv-x="297" 
d="M44 429q35 -20 91 -20q48 0 48 34q0 29 -59 29h-40v65h57q39 0 39 25q0 24 -50 24q-51 0 -86 -21l-21 64q46 31 122 31q52 0 86 -19q40 -22 40 -64q0 -56 -48 -69q52 -14 52 -77q0 -48 -41 -74q-36 -23 -89 -23q-74 0 -122 31z" />
    <glyph glyph-name="onesuperior" unicode="&#xb9;" horiz-adv-x="297" 
d="M285 339h-254v61h83v173l-72 -43l-32 61l113 69h85v-260h77v-61z" />
    <glyph glyph-name="onequarter" unicode="&#xbc;" horiz-adv-x="680" 
d="M228 35h-104l376 585h102zM616 0h-94v60h-171v66l162 195h103v-198h36v-63h-36v-60zM522 123v106l-80 -106h80zM281 339h-234v61h74v173l-72 -43l-32 61l113 69h85v-260h66v-61z" />
    <glyph glyph-name="onehalf" unicode="&#xbd;" horiz-adv-x="680" 
d="M220 35h-104l376 585h103zM663 0h-246v51q0 58 76 102q76 43 76 69q0 30 -55 30q-40 0 -74 -21l-24 62q51 28 117 28q130 0 130 -99q0 -55 -66 -95q-68 -42 -71 -62h137v-65zM281 339h-234v61h74v173l-72 -43l-32 61l113 69h85v-260h66v-61z" />
    <glyph glyph-name="threequarters" unicode="&#xbe;" horiz-adv-x="680" 
d="M218 35h-103l375 585h103zM621 0h-94v60h-171v66l162 195h103v-198h36v-63h-36v-60zM527 123v106l-80 -106h80zM49 429q35 -20 91 -20q48 0 48 34q0 29 -59 29h-40v65h57q39 0 39 25q0 24 -50 24q-51 0 -86 -21l-21 64q46 31 122 31q52 0 86 -19q40 -22 40 -64
q0 -56 -48 -69q52 -14 52 -77q0 -48 -41 -74q-36 -23 -89 -23q-74 0 -122 31z" />
    <glyph glyph-name="Eth" unicode="&#xd0;" horiz-adv-x="622" 
d="M54 0v268h-47v101h47v281h233q304 0 304 -324q0 -326 -304 -326h-233zM283 118q83 0 116 51q29 45 29 156q0 110 -29 156q-33 50 -117 50h-62v-162h96v-101h-96v-150h63z" />
    <glyph glyph-name="multiply" unicode="&#xd7;" horiz-adv-x="596" 
d="M517 102l-82 -80l-138 139l-138 -139l-82 80l142 134l-138 133l80 77l136 -135l136 135l80 -77l-138 -133z" />
    <glyph glyph-name="Yacute" unicode="&#xdd;" horiz-adv-x="666" 
d="M415 0h-166v224l-221 426h170l134 -291l134 291h172l-223 -426v-224zM333 709h-116l82 156h150z" />
    <glyph glyph-name="Thorn" unicode="&#xde;" horiz-adv-x="574" 
d="M220 185q16 -1 46 -1q117 0 117 115q0 114 -117 114q-14 0 -46 -2v-226zM220 -21h-166v640h166v-89q21 1 63 1q122 0 189 -55q73 -59 73 -177t-73 -177q-67 -55 -189 -55q-42 0 -63 1v-89z" />
    <glyph glyph-name="eth" unicode="&#xf0;" horiz-adv-x="596" 
d="M518 609l-54 -25q93 -95 93 -284q0 -162 -78 -242q-69 -71 -194 -71q-115 0 -182 68q-63 65 -63 172q0 97 66 155q61 53 151 53q98 0 156 -52q-6 104 -66 149l-167 -75l-23 54l108 52q-12 4 -41 4q-59 0 -121 -19l-24 85q84 33 166 33q90 0 159 -37l86 39zM294 98
q42 0 70 33t28 86q0 51 -28 82q-28 30 -70 30t-69 -30q-28 -31 -28 -82q0 -53 28 -86t69 -33z" />
    <glyph glyph-name="yacute" unicode="&#xfd;" horiz-adv-x="588" 
d="M279 -175h-147l83 192l-189 445h149l114 -321l120 321h150zM294 520h-116l82 156h150z" />
    <glyph glyph-name="thorn" unicode="&#xfe;" horiz-adv-x="570" 
d="M210 -187h-157v830h157v-224q45 45 130 45q89 0 145 -64q56 -65 56 -173q0 -107 -56 -172t-145 -65q-83 0 -130 46v-223zM291 94q90 0 90 133q0 134 -90 134q-50 0 -67 -37q-14 -28 -14 -97q0 -70 14 -98q18 -35 67 -35z" />
    <glyph glyph-name="Lslash" unicode="&#x141;" horiz-adv-x="518" 
d="M494 0h-440v226l-45 -16v86l45 15v339h166v-284l160 57v-85l-160 -58v-162h274v-118z" />
    <glyph glyph-name="lslash" unicode="&#x142;" horiz-adv-x="263" 
d="M209 0h-155v236l-49 -17v85l49 18v328h155v-278l52 20v-86l-52 -19v-287z" />
    <glyph glyph-name="Scaron" unicode="&#x160;" horiz-adv-x="572" 
d="M460 492q-79 46 -155 46q-89 0 -89 -59q0 -30 50 -55q17 -8 51 -22q43 -17 59 -24q160 -71 160 -197q0 -95 -77 -146q-69 -45 -179 -45q-153 0 -243 82l56 106q80 -66 172 -66q105 0 105 65q0 34 -43 59q-13 8 -98 43q-90 40 -127 77q-49 48 -49 122q0 83 67 133
q66 49 177 49q130 0 220 -68zM342 709h-112l-113 177h112l57 -98l57 98h112z" />
    <glyph glyph-name="scaron" unicode="&#x161;" horiz-adv-x="476" 
d="M381 339q-64 31 -123 31q-58 0 -58 -34q0 -16 37 -31q10 -4 38 -13q27 -9 43 -16q118 -46 118 -138q0 -147 -224 -147q-102 0 -175 55l41 85q55 -38 132 -38q75 0 75 42q0 19 -37 34q-11 5 -38 14q-29 9 -43 15q-119 47 -119 144q0 65 58 100q51 30 132 30q114 0 185 -48
zM294 520h-112l-113 177h112l57 -98l57 98h112z" />
    <glyph glyph-name="Zcaron" unicode="&#x17d;" horiz-adv-x="578" 
d="M547 0h-516v102l313 429h-296v119h488v-106l-310 -426h321v-118zM345 709h-112l-113 177h112l57 -98l57 98h112z" />
    <glyph glyph-name="zcaron" unicode="&#x17e;" horiz-adv-x="482" 
d="M451 0h-420v82l232 293h-219v86h394v-71l-238 -304h251v-86zM297 520h-112l-113 177h112l57 -98l57 98h112z" />
    <glyph glyph-name="uni0E00" unicode="&#xe00;" 
 />
    <glyph glyph-name="uni0E01" unicode="&#xe01;" horiz-adv-x="613" 
d="M564 0h-155v352q0 96 -105 96q-88 0 -118 -55l78 -43v-40q-52 -17 -52 -92v-218h-155v226q0 84 58 108l-84 55q18 72 97 118q75 43 172 43q117 0 187 -47q77 -51 77 -146v-357z" />
    <glyph glyph-name="uni0E02" unicode="&#xe02;" horiz-adv-x="574" 
d="M525 142q0 -74 -72 -115q-66 -37 -170 -37q-107 0 -172 39q-70 43 -70 121v87q0 49 46 94q45 45 45 66q0 42 -51 42h-46v101h118q126 0 126 -104q0 -54 -41 -102q-42 -48 -42 -97v-81q0 -64 88 -64q86 0 86 64v384h155v-398z" />
    <glyph glyph-name="uni0E03" unicode="&#xe03;" horiz-adv-x="591" 
d="M542 142q0 -74 -72 -115q-66 -37 -170 -37q-103 0 -169 37q-73 41 -73 115v91q0 50 55 103t55 90q0 5 -2 19l-55 -39h-72v134h98v-44l60 44q106 0 106 -97q0 -57 -45 -109q-45 -53 -45 -94v-84q0 -64 88 -64q86 0 86 64v384h155v-398z" />
    <glyph glyph-name="uni0E04" unicode="&#xe04;" horiz-adv-x="606" 
d="M557 0h-154v377q0 71 -99 71q-100 0 -100 -71v-121q24 33 71 33h67v-109h-82q-41 0 -56 -41v-139h-155v375q0 79 68 127q69 48 187 48q116 0 185 -48q68 -47 68 -127v-375z" />
    <glyph glyph-name="uni0E05" unicode="&#xe05;" horiz-adv-x="606" 
d="M557 0h-154v368q0 50 -32 67l-58 -52h-19l-59 52q-31 -16 -31 -67v-112q24 33 71 33h67v-109h-82q-41 0 -56 -41v-139h-155v361q0 85 50 135q50 51 142 54l60 -53h3l61 53q91 -3 142 -54q50 -51 50 -135v-361z" />
    <glyph glyph-name="uni0E06" unicode="&#xe06;" horiz-adv-x="615" 
d="M566 189q0 -199 -178 -199q-111 0 -178 74l-9 -64h-143v233q0 50 55 103t55 90q0 5 -2 19l-55 -39h-72v134h98v-44l60 44q106 0 106 -97q0 -57 -45 -109q-45 -53 -45 -94v-61q45 -87 114 -87q84 0 84 90v358h155v-351z" />
    <glyph glyph-name="uni0E07" unicode="&#xe07;" horiz-adv-x="585" 
d="M284 102q120 0 120 183q0 74 -28 117q-30 46 -86 46q-26 0 -59 -11l-17 98q43 15 94 15q123 0 187 -68t64 -197q0 -130 -65 -206q-67 -79 -186 -79h-158l-138 380h145l101 -278h26z" />
    <glyph glyph-name="uni0E08" unicode="&#xe08;" horiz-adv-x="559" 
d="M248 102q30 0 49 9q81 24 81 165q0 172 -155 172q-92 0 -164 -40l-43 94q98 48 218 48q138 0 215 -65q84 -70 84 -209q0 -129 -80 -204q-78 -72 -205 -72h-116l-34 211h-59v102h174z" />
    <glyph glyph-name="uni0E09" unicode="&#xe09;" horiz-adv-x="601" 
d="M552 0h-144l-9 64q-65 -74 -165 -74q-175 0 -175 191v112h155v-110q0 -91 80 -91q69 0 103 87v152q0 62 -33 89q-34 28 -112 28q-91 0 -180 -42l-33 90q106 54 237 54q126 0 198 -47q78 -51 78 -151v-352z" />
    <glyph glyph-name="uni0E0A" unicode="&#xe0a;" horiz-adv-x="577" 
d="M525 142q0 -74 -72 -115q-66 -37 -170 -37q-107 0 -172 39q-70 43 -70 121v87q0 49 46 94q45 45 45 66q0 42 -51 42h-46v101h118q126 0 126 -104q0 -54 -41 -102q-42 -48 -42 -97v-81q0 -64 88 -64q86 0 86 64v179q0 56 -55 63v34l81 109h161l-101 -127q69 -14 69 -83
v-189z" />
    <glyph glyph-name="uni0E0B" unicode="&#xe0b;" horiz-adv-x="594" 
d="M542 142q0 -74 -72 -115q-66 -37 -170 -37q-103 0 -169 37q-73 41 -73 115v91q0 50 55 103t55 90q0 5 -2 19l-55 -39h-72v134h98v-44l60 44q106 0 106 -97q0 -57 -45 -109q-45 -53 -45 -94v-84q0 -64 88 -64q86 0 86 64v179q0 56 -55 63v34l81 109h161l-101 -127
q69 -14 69 -83v-189z" />
    <glyph glyph-name="uni0E0C" unicode="&#xe0c;" horiz-adv-x="927" 
d="M878 181q0 -191 -173 -191q-100 0 -157 73l-9 -63h-142v352q0 96 -102 96q-79 0 -109 -55l78 -43v-40q-52 -17 -52 -92v-78q0 -38 36 -38h43v-102h-122q-50 0 -81 29t-31 81v116q0 84 58 108l-84 55q18 73 94 118q73 43 169 43q116 0 183 -47q73 -51 73 -146v-182
q36 -83 98 -83q75 0 75 91v357h155v-359z" />
    <glyph glyph-name="uni0E0D" unicode="&#xe0d;" horiz-adv-x="927" 
d="M878 228q0 -98 -62 -139q59 -25 59 -79q0 -67 -66 -103q-60 -34 -162 -34q-132 0 -218 45l47 85q42 -29 149 -29q100 0 100 47q0 27 -26 30q-43 -12 -83 -12q-219 0 -219 189v124q0 96 -102 96q-79 0 -109 -55l78 -43v-40q-52 -17 -52 -92v-78q0 -38 36 -38h43v-102h-122
q-50 0 -81 29t-31 81v116q0 84 58 108l-84 55q18 73 94 118q73 43 169 43q116 0 183 -47q73 -51 73 -146v-127q0 -89 87 -89q86 0 86 89v310h155v-312z" />
    <glyph glyph-name="uni0E0E" unicode="&#xe0e;" horiz-adv-x="620" 
d="M571 -180h-150q-50 56 -109 56q-58 0 -64 -58h-118q8 70 48 110q42 42 107 42q73 0 132 -43v425q0 96 -106 96q-86 0 -118 -55l80 -43v-40q-36 -15 -36 -68v-137q0 -105 -104 -105h-112v102h31q31 0 31 36v96q0 73 41 100l-86 55q19 72 97 118q76 43 172 43
q117 0 187 -47q77 -51 77 -146v-537z" />
    <glyph glyph-name="uni0E0F" unicode="&#xe0f;" horiz-adv-x="620" 
d="M571 -172h-161l-88 33q-40 -43 -107 -43q-59 0 -106 26q1 1 17 44q16 44 17 44q29 -22 68 -22q61 0 84 65l122 -51v428q0 96 -106 96q-86 0 -118 -55l80 -43v-40q-36 -15 -36 -68v-137q0 -105 -104 -105h-112v102h31q31 0 31 36v96q0 73 41 100l-86 55q19 72 97 118
q76 43 172 43q117 0 187 -47q77 -51 77 -146v-529z" />
    <glyph glyph-name="uni0E10" unicode="&#xe10;" horiz-adv-x="563" 
d="M248 102q30 0 49 9q81 24 81 165q0 172 -155 172q-92 0 -164 -40l-43 94q98 48 218 48q39 0 75 -6l226 66v-111l-85 -15q83 -70 83 -208q0 -129 -80 -204q-78 -72 -205 -72h-116l-34 211h-59v102h174zM507 -44q1 -9 1 -25q0 -140 -137 -152l-108 47q-35 -57 -109 -57
q-69 0 -105 46l44 84q30 -27 72 -27q65 0 92 67l116 -50q18 13 18 42q0 9 -2 25h118z" />
    <glyph glyph-name="uni0E11" unicode="&#xe11;" horiz-adv-x="616" 
d="M567 0h-155v376q0 63 -37 63q-39 0 -99 -87q-62 -90 -62 -160v-192h-155v233q0 50 55 103t55 90q0 5 -2 19l-55 -39h-72v134h98v-44l60 44q67 0 83 -48q58 58 147 58q139 0 139 -171v-379z" />
    <glyph glyph-name="uni0E12" unicode="&#xe12;" horiz-adv-x="948" 
d="M899 181q0 -191 -172 -191q-100 0 -157 73l-9 -63h-143v368q0 50 -32 67l-67 -52h-19l-68 52q-31 -16 -31 -67v-250q25 7 48 31q22 22 25 43h-34v109h152v-77q-5 -76 -55 -137q-52 -63 -136 -87h-152v371q0 80 51 128t141 51l68 -53l67 53q90 -2 143 -51t53 -128v-196
q36 -83 98 -83q75 0 75 91v357h154v-359z" />
    <glyph glyph-name="uni0E13" unicode="&#xe13;" horiz-adv-x="936" 
d="M887 0h-143l-9 63q-57 -73 -165 -73q-173 0 -173 191v171q0 96 -102 96q-79 0 -109 -55l78 -43v-40q-52 -17 -52 -92v-78q0 -38 36 -38h43v-102h-122q-50 0 -81 29t-31 81v116q0 84 58 108l-84 55q18 73 94 118q73 43 169 43q116 0 183 -47q73 -51 73 -146v-174
q0 -91 80 -91q72 0 102 87v361h155v-540z" />
    <glyph glyph-name="uni0E14" unicode="&#xe14;" horiz-adv-x="626" 
d="M577 0h-154v372q0 76 -110 76q-49 0 -80 -21q-32 -21 -32 -55v-254q25 7 48 31q22 22 25 43h-34v109h152v-77q-5 -76 -55 -137q-52 -63 -136 -87h-152v370q0 79 73 129q73 51 191 51q117 0 191 -50q73 -50 73 -130v-370z" />
    <glyph glyph-name="uni0E15" unicode="&#xe15;" horiz-adv-x="626" 
d="M577 0h-154v368q0 50 -32 67l-69 -52h-19l-70 52q-32 -17 -32 -67v-250q25 7 48 31q22 22 25 43h-34v109h152v-77q-5 -76 -55 -137q-52 -63 -136 -87h-152v371q0 80 52 128q52 49 141 51l70 -53l69 53q90 -2 143 -51t53 -128v-371z" />
    <glyph glyph-name="uni0E16" unicode="&#xe16;" horiz-adv-x="613" 
d="M564 0h-155v352q0 96 -105 96q-88 0 -118 -55l78 -43v-40q-52 -17 -52 -92v-78q0 -38 36 -38h43v-102h-122q-50 0 -81 29t-31 81v116q0 84 58 108l-84 55q18 72 97 118q75 43 172 43q117 0 187 -47q77 -51 77 -146v-357z" />
    <glyph glyph-name="uni0E17" unicode="&#xe17;" horiz-adv-x="611" 
d="M562 0h-155v358q0 90 -84 90q-69 0 -114 -87v-361h-155v540h146l9 -64q65 74 175 74q178 0 178 -190v-360z" />
    <glyph glyph-name="uni0E18" unicode="&#xe18;" horiz-adv-x="568" 
d="M482 404q-93 44 -197 44q-110 0 -110 -35q0 -20 57 -35l124 -27q181 -48 181 -172q0 -189 -259 -189q-111 0 -176 39q-66 39 -66 106v93h155v-66q0 -70 96 -70t96 81q0 39 -55 62q-21 8 -122 34q-83 21 -122 47q-55 36 -55 98q0 136 257 136q164 0 241 -51z" />
    <glyph glyph-name="uni0E19" unicode="&#xe19;" horiz-adv-x="606" 
d="M557 0h-144l-8 64q-67 -74 -177 -74q-179 0 -179 191v359h155v-357q0 -91 85 -91q68 0 113 87v361h155v-540z" />
    <glyph glyph-name="uni0E1A" unicode="&#xe1a;" horiz-adv-x="607" 
d="M558 175q0 -88 -68 -137q-67 -48 -186 -48t-187 48q-68 49 -68 137v365h155v-362q0 -86 100 -86q99 0 99 86v362h155v-365z" />
    <glyph glyph-name="uni0E1B" unicode="&#xe1b;" horiz-adv-x="607" 
d="M558 175q0 -88 -68 -137q-67 -48 -186 -48t-187 48q-68 49 -68 137v365h155v-362q0 -86 100 -86q99 0 99 86v534h155v-537z" />
    <glyph glyph-name="uni0E1C" unicode="&#xe1c;" horiz-adv-x="678" 
d="M575 0h-139l-97 271l-97 -271h-139l-72 540h219v-89h-65l26 -280l84 213h88l84 -213l35 369h145z" />
    <glyph glyph-name="uni0E1D" unicode="&#xe1d;" horiz-adv-x="678" 
d="M575 0h-139l-97 271l-97 -271h-139l-72 540h219v-89h-65l26 -280l84 213h88l84 -213l55 541h145z" />
    <glyph glyph-name="uni0E1E" unicode="&#xe1e;" horiz-adv-x="710" 
d="M598 0h-139l-104 341l-104 -341h-139l-77 540h147l37 -328l84 305h104l84 -305l37 328h147z" />
    <glyph glyph-name="uni0E1F" unicode="&#xe1f;" horiz-adv-x="710" 
d="M598 0h-139l-104 341l-104 -341h-139l-77 540h147l37 -328l84 305h104l84 -305l59 500h147z" />
    <glyph glyph-name="uni0E20" unicode="&#xe20;" horiz-adv-x="620" 
d="M571 0h-154v352q0 96 -106 96q-86 0 -118 -55l80 -43v-40q-36 -15 -36 -68v-137q0 -105 -104 -105h-112v102h31q31 0 31 36v96q0 73 41 100l-86 55q19 72 97 118q76 43 172 43q117 0 187 -47q77 -51 77 -146v-357z" />
    <glyph glyph-name="uni0E21" unicode="&#xe21;" horiz-adv-x="611" 
d="M562 181q0 -191 -179 -191q-110 0 -177 74l-8 -64h-144v540h155v-361q45 -87 113 -87q85 0 85 91v357h155v-359z" />
    <glyph glyph-name="uni0E22" unicode="&#xe22;" horiz-adv-x="622" 
d="M573 167q0 -82 -71 -130q-70 -47 -186 -47q-271 0 -271 172q0 96 89 126v4q-83 34 -83 121q0 67 58 104q52 33 135 33q48 0 93 -12l-18 -93q-19 8 -50 8q-27 0 -45 -16t-18 -41q0 -64 72 -64h49v-87h-42q-85 0 -85 -78q0 -75 105 -75q113 0 113 82v366h155v-373z" />
    <glyph glyph-name="uni0E23" unicode="&#xe23;" horiz-adv-x="520" 
d="M435 413q-58 35 -156 35q-82 0 -82 -46q0 -21 45 -39q14 -6 47 -17l54 -19q145 -58 145 -169q0 -84 -69 -128q-64 -40 -172 -40q-123 0 -219 65l43 87q69 -50 175 -50q87 0 87 56q0 25 -45 44q-15 7 -46 17l-53 18q-145 54 -145 165q0 72 62 115q61 43 163 43
q135 0 208 -51z" />
    <glyph glyph-name="uni0E24" unicode="&#xe24;" horiz-adv-x="613" 
d="M564 -183h-155v535q0 96 -105 96q-88 0 -118 -55l78 -43v-40q-52 -17 -52 -92v-78q0 -38 36 -38h43v-102h-122q-50 0 -81 29t-31 81v116q0 84 58 108l-84 55q18 72 97 118q75 43 172 43q117 0 187 -47q77 -51 77 -146v-540z" />
    <glyph glyph-name="uni0E25" unicode="&#xe25;" horiz-adv-x="586" 
d="M537 0h-155v230q-109 0 -152 -17q-44 -17 -44 -62q0 -59 59 -59q21 0 40 7l23 -89q-41 -20 -104 -20q-75 0 -122 38q-51 40 -51 110q0 125 125 167q68 24 226 26v17q0 54 -30 78q-28 22 -91 22q-87 0 -161 -49l-43 96q94 55 226 55q223 0 250 -163q4 -24 4 -55v-332z" />
    <glyph glyph-name="uni0E26" unicode="&#xe26;" horiz-adv-x="620" 
d="M571 -183h-154v535q0 96 -106 96q-86 0 -118 -55l80 -43v-40q-36 -15 -36 -68v-137q0 -105 -104 -105h-112v102h31q31 0 31 36v96q0 73 41 100l-86 55q19 72 97 118q76 43 172 43q117 0 187 -47q77 -51 77 -146v-540z" />
    <glyph glyph-name="uni0E27" unicode="&#xe27;" horiz-adv-x="516" 
d="M73 132q54 -40 123 -40q148 0 148 178t-149 178q-67 0 -124 -40l-44 94q84 48 185 48q132 0 203 -69q75 -72 75 -211t-74 -211q-72 -69 -203 -69q-100 0 -184 47z" />
    <glyph glyph-name="uni0E28" unicode="&#xe28;" horiz-adv-x="609" 
d="M557 0h-154v377q0 71 -99 71q-100 0 -100 -71v-121q24 33 71 33h67v-109h-82q-41 0 -56 -41v-139h-155v375q0 79 68 127q69 48 187 48q29 0 54 -3l211 63v-111l-76 -13q64 -34 64 -111v-375z" />
    <glyph glyph-name="uni0E29" unicode="&#xe29;" horiz-adv-x="627" 
d="M566 175q0 -88 -70 -137q-69 -48 -188 -48q-120 0 -189 48q-70 49 -70 137v365h155v-362q0 -86 104 -86q50 0 77 25q26 23 26 61v78h-115v109h115v175h155v-175h36v-109h-36v-81z" />
    <glyph glyph-name="uni0E2A" unicode="&#xe2a;" horiz-adv-x="586" 
d="M537 0h-155v230q-109 0 -152 -17q-44 -17 -44 -62q0 -59 59 -59q21 0 40 7l23 -89q-41 -20 -104 -20q-75 0 -122 38q-51 40 -51 110q0 125 125 167q68 24 226 26v17q0 54 -30 78q-28 22 -91 22q-87 0 -161 -49l-43 96q94 55 226 55q14 0 36 -2l221 62v-103l-83 -12
q61 -26 76 -108q4 -24 4 -55v-332z" />
    <glyph glyph-name="uni0E2B" unicode="&#xe2b;" horiz-adv-x="616" 
d="M567 0h-155v160q0 85 -89 85h-114v-245h-155v540h155v-185h114q89 0 89 92v93h155v-116q0 -99 -86 -128q86 -19 86 -112v-184z" />
    <glyph glyph-name="uni0E2C" unicode="&#xe2c;" horiz-adv-x="696" 
d="M600 0h-140l-105 251l-104 -251h-139l-77 540h147l37 -384l92 222h89l93 -222l25 266q0 48 -82 54v50l101 105h153l-110 -119q75 -17 75 -86l-1 -17z" />
    <glyph glyph-name="uni0E2D" unicode="&#xe2d;" horiz-adv-x="582" 
d="M199 103q25 -11 66 -11q132 0 132 180q0 176 -156 176q-92 0 -166 -39l-44 94q95 47 219 47q301 0 301 -279q0 -281 -287 -281q-126 0 -220 38v286h231v-110h-76v-101z" />
    <glyph glyph-name="uni0E2E" unicode="&#xe2e;" horiz-adv-x="582" 
d="M199 103q25 -11 66 -11q132 0 132 180q0 176 -156 176q-92 0 -166 -39l-44 94q95 47 219 47q35 0 75 -5l221 65v-111l-80 -13q85 -56 85 -215q0 -281 -287 -281q-126 0 -220 38v286h231v-110h-76v-101z" />
    <glyph glyph-name="uni0E2F" unicode="&#xe2f;" horiz-adv-x="553" 
d="M504 0h-154v307q-52 -43 -137 -43q-77 0 -126 44q-51 46 -51 123v117h155v-114q0 -71 74 -71q50 0 85 52v133h154v-548z" />
    <glyph glyph-name="uni0E30" unicode="&#xe30;" horiz-adv-x="347" 
d="M288 333h-178q-78 0 -78 85v73h128v-31q0 -26 26 -26h102v-101zM288 38h-178q-78 0 -78 85v73h128v-31q0 -25 26 -25h102v-102z" />
    <glyph glyph-name="uni0E31" unicode="&#xe31;" 
d="M56 623h-329q-38 0 -60 24q-21 23 -21 61v78h128v-36q0 -26 26 -26h256v-101z" />
    <glyph glyph-name="uni0E32" unicode="&#xe32;" horiz-adv-x="444" 
d="M395 0h-155v366q0 82 -79 82q-62 0 -108 -39l-44 94q69 47 183 47q203 0 203 -190v-360z" />
    <glyph glyph-name="uni0E33" unicode="&#xe33;" horiz-adv-x="444" 
d="M-45 703q0 -46 -35 -73q-32 -26 -82 -26t-83 26q-35 27 -35 73t35 74q34 26 83 26t82 -26q35 -28 35 -74zM-162 666q39 0 39 37q0 36 -39 36t-39 -36q0 -37 39 -37zM395 0h-155v366q0 82 -79 82q-62 0 -108 -39l-44 94q69 47 183 47q203 0 203 -190v-360z" />
    <glyph glyph-name="uni0E34" unicode="&#xe34;" 
d="M-49 623h-465v101h465v-101z" />
    <glyph glyph-name="uni0E35" unicode="&#xe35;" 
d="M-49 623h-465v101h325v68h140v-169z" />
    <glyph glyph-name="uni0E36" unicode="&#xe36;" 
d="M-222 724q2 34 26.5 57.5t62.5 23.5q42 0 67.5 -26.5t25.5 -65.5q0 -38 -27 -64t-68 -26h-379v101h292zM-133 682q33 0 33 31q0 32 -33 32t-33 -32q0 -31 33 -31z" />
    <glyph glyph-name="uni0E37" unicode="&#xe37;" 
d="M-49 623h-465v101h193v68h107v-68h58v68h107v-169z" />
    <glyph glyph-name="uni0E38" unicode="&#xe38;" 
d="M-49 -289h-130v91q0 31 -28 31h-47v96h106q99 0 99 -73v-145z" />
    <glyph glyph-name="uni0E39" unicode="&#xe39;" 
d="M-49 -195q0 -102 -166 -102q-159 0 -159 88v41h-50v97h99q41 0 54 -10q16 -13 16 -54v-43q0 -35 39 -35t39 35v107h128v-124z" />
    <glyph glyph-name="uni0E3A" unicode="&#xe3a;" 
d="M-42 -139q0 -35 -23 -58q-24 -24 -59 -24t-59 24q-23 23 -23 58t23 59q24 24 59 24t59 -24q23 -24 23 -59z" />
    <glyph glyph-name="uni0E3F" unicode="&#xe3f;" horiz-adv-x="605" 
d="M345 -77h-134v77h-157v650h157v78h134v-79q198 -8 198 -161q0 -108 -100 -148v-4q123 -25 123 -148q0 -180 -221 -188v-77zM303 115q52 0 75 16q25 18 25 61t-25 61q-25 17 -80 17h-78v-155h83zM295 385q86 0 86 76q0 72 -83 72h-78v-148h75z" />
    <glyph glyph-name="uni0E40" unicode="&#xe40;" horiz-adv-x="305" 
d="M279 0h-116q-50 0 -80 28q-30 29 -30 81v431h155v-401q0 -37 33 -37h38v-102z" />
    <glyph glyph-name="uni0E41" unicode="&#xe41;" horiz-adv-x="576" 
d="M279 0h-116q-50 0 -80 28q-30 29 -30 81v431h155v-401q0 -37 33 -37h38v-102zM550 0h-117q-50 0 -79 28q-30 29 -30 81v431h154v-401q0 -37 34 -37h38v-102z" />
    <glyph glyph-name="uni0E42" unicode="&#xe42;" horiz-adv-x="332" 
d="M305 0h-117q-50 0 -79 28q-30 29 -30 81v467q0 120 -110 154q4 75 66 117q58 38 149 38q103 0 172 -51l-42 -90q-60 39 -126 39q-57 0 -88 -32q68 -13 104 -62q30 -42 30 -98v-452q0 -37 33 -37h38v-102z" />
    <glyph glyph-name="uni0E43" unicode="&#xe43;" horiz-adv-x="358" 
d="M332 0h-117q-50 0 -80 28q-30 29 -30 81v418q0 54 59 117t59 93q0 46 -59 46q-66 0 -71 -73h-132q6 88 65 133q56 42 149 42q194 0 194 -138q0 -49 -54 -115q-55 -65 -55 -112v-381q0 -37 33 -37h39v-102z" />
    <glyph glyph-name="uni0E44" unicode="&#xe44;" horiz-adv-x="336" 
d="M310 0h-117q-50 0 -80 28q-30 29 -30 81v479q0 132 115 181h-225v103h362v-114q-97 -28 -97 -169v-450q0 -37 33 -37h39v-102z" />
    <glyph glyph-name="uni0E45" unicode="&#xe45;" horiz-adv-x="446" 
d="M397 -183h-155v549q0 82 -80 82q-61 0 -108 -39l-44 94q69 47 183 47q204 0 204 -190v-543z" />
    <glyph glyph-name="uni0E46" unicode="&#xe46;" horiz-adv-x="598" 
d="M521 -146h-155v511q0 63 -32 85l-63 -55l-78 56q-34 -23 -34 -74q0 -30 17 -50q17 -21 43 -21q19 0 32 7v-82q-33 -18 -85 -18q-60 0 -97 44q-38 43 -38 112q0 79 52 131q48 48 122 56l66 -46l66 46q99 -7 142 -58q42 -50 42 -152v-492z" />
    <glyph glyph-name="uni0E47" unicode="&#xe47;" 
d="M-90 607h-69l-95 37l-92 -40q-60 0 -97 25q-43 29 -43 84q0 51 36 82q39 33 108 33h273v-80h-265q-51 0 -51 -35q0 -27 34 -34l94 38l99 -37h68v-73z" />
    <glyph glyph-name="uni0E48" unicode="&#xe48;" 
d="M-51 836h-134v124h134v-124z" />
    <glyph glyph-name="uni0E49" unicode="&#xe49;" 
d="M43 836h-295v59q0 20 -19 20h-38v74h91q73 0 73 -58v-20h188v-75z" />
    <glyph glyph-name="uni0E4A" unicode="&#xe4a;" 
d="M80 836h-189v48q0 16 -7 23l-64 -53l-67 53q-7 -6 -7 -23v-48h-98v59q0 42 37 66q34 22 84 23l51 -47l53 47q96 -4 112 -74h95v-74z" />
    <glyph glyph-name="uni0E4B" unicode="&#xe4b;" 
d="M6 884h-65v-48h-118v48h-64v58h64v48h118v-48h65v-58z" />
    <glyph glyph-name="uni0E4C" unicode="&#xe4c;" 
d="M-13 852h-85q-36 0 -36 -29v-30h-124v60q0 73 115 73h130v-74z" />
    <glyph glyph-name="uni0E4D" unicode="&#xe4d;" 
d="M-42 702q0 -45 -34 -71q-32 -24 -81 -24t-81 24q-34 26 -34 71t34 72q33 26 81 26t81 -26q34 -27 34 -72zM-157 668q36 0 36 34t-36 34q-37 0 -37 -34t37 -34z" />
    <glyph glyph-name="uni0E4E" unicode="&#xe4e;" 
d="M-150 623h-137q-87 0 -87 67q0 57 75 69q-30 24 -30 52q0 29 24 48q26 21 65 21h162v-55h-83q-38 0 -38 -20q0 -22 30 -22h27v-51h-64q-45 0 -45 -32q0 -26 36 -26h65v-51z" />
    <glyph glyph-name="uni0E4F" unicode="&#xe4f;" horiz-adv-x="567" 
d="M513 218q0 -100 -66 -163q-64 -62 -162 -62t-162 62q-66 63 -66 163t66 163q64 62 162 62t162 -62q66 -63 66 -163zM467 218q0 79 -52 130q-52 50 -130 50t-130 -50q-52 -51 -52 -130t52 -130q52 -50 130 -50t130 50q52 51 52 130zM415 218q0 -58 -37 -94
q-36 -35 -93 -35t-93 35q-37 36 -37 94t37 94q36 35 93 35t93 -35q37 -36 37 -94zM374 218q0 40 -25 64t-64 24q-40 0 -64 -24q-25 -24 -25 -64t25 -64q24 -24 64 -24q39 0 64 24t25 64z" />
    <glyph glyph-name="uni0E50" unicode="&#xe50;" horiz-adv-x="607" 
d="M571 232q0 -109 -72 -175q-73 -67 -195 -67q-120 0 -194 67t-74 175t72 175q74 68 196 68q120 0 194 -68q73 -68 73 -175zM432 232q0 135 -128 135q-127 0 -127 -135t127 -135q128 0 128 135z" />
    <glyph glyph-name="uni0E51" unicode="&#xe51;" horiz-adv-x="607" 
d="M355 155q-56 -28 -124 -28q-92 0 -144 42q-51 43 -51 117q0 87 74 138q73 51 191 51q122 0 196 -65q75 -65 75 -176q0 -126 -90 -198q-90 -73 -247 -73q-91 0 -124 10v98q53 -10 132 -10q89 0 140 46t51 127q0 126 -139 126q-54 0 -86 -20q-32 -21 -32 -54q0 -57 85 -57
q34 0 66 10z" />
    <glyph glyph-name="uni0E52" unicode="&#xe52;" horiz-adv-x="690" 
d="M641 0h-436q-152 0 -152 132v328q0 74 -5 104h131q8 -35 8 -109v-293q0 -59 56 -59h264v259h-102q-48 0 -48 -59q0 -54 63 -54q14 0 34 4v-95q-29 -4 -68 -4q-143 0 -143 148q0 159 138 159h260v-461z" />
    <glyph glyph-name="uni0E53" unicode="&#xe53;" horiz-adv-x="634" 
d="M578 0h-133v366l-102 -62l-93 62q-37 -4 -60 -44q-21 -39 -21 -95q0 -61 29 -100q31 -40 85 -40q23 0 49 10l18 -86q-37 -21 -114 -21q-99 0 -151 65q-50 62 -50 172q0 107 54 176q55 71 141 72l113 -67l108 53h127v-461z" />
    <glyph glyph-name="uni0E54" unicode="&#xe54;" horiz-adv-x="635" 
d="M576 0h-309q-235 0 -235 233q0 228 238 228h176q51 0 51 34v63h106v-112q0 -84 -119 -84h-177q-141 0 -141 -129q0 -140 122 -140h70q-68 22 -68 115q0 88 88 88h95v-74h-34q-29 0 -29 -28q0 -34 38 -68q37 -33 72 -33h56v-93z" />
    <glyph glyph-name="uni0E55" unicode="&#xe55;" horiz-adv-x="635" 
d="M576 0h-309q-235 0 -235 233q0 204 187 225q-13 17 -13 44q0 77 90 77q88 0 88 -77q0 -24 -12 -41h74q51 0 51 34v63h106v-112q0 -84 -119 -84h-177q-141 0 -141 -129q0 -140 122 -140h70q-68 22 -68 115q0 88 88 88h95v-74h-34q-29 0 -29 -28q0 -34 38 -68
q37 -33 72 -33h56v-93zM296 480q27 0 27 27q0 26 -27 26q-28 0 -28 -26q0 -27 28 -27z" />
    <glyph glyph-name="uni0E56" unicode="&#xe56;" horiz-adv-x="598" 
d="M189 188q13 -98 116 -98q60 0 94 37q34 36 34 100q0 59 -34 96q-37 40 -102 40q-87 0 -122 -56h-135v153q0 53 -5 98h110q7 -20 7 -75v-77q48 69 169 69q114 0 180 -68t66 -180q0 -115 -68 -176q-69 -61 -197 -61q-250 0 -256 198h143z" />
    <glyph glyph-name="uni0E57" unicode="&#xe57;" horiz-adv-x="810" 
d="M763 152q0 -80 -43 -114q-49 -38 -169 -38h-134v358l-78 -54l-89 61q-37 -4 -60 -44q-21 -38 -21 -94q0 -61 29 -100q31 -40 85 -40q23 0 49 10l18 -86q-37 -21 -114 -21q-99 0 -151 65q-50 62 -50 172q0 106 54 176q55 70 141 71l109 -66l105 53h107v-358q33 1 55 13
q23 14 23 34v341q0 38 6 67h134q-6 -28 -6 -97v-309z" />
    <glyph glyph-name="uni0E58" unicode="&#xe58;" horiz-adv-x="663" 
d="M433 0l-106 102l-94 -102h-47q-75 5 -117 82q-37 66 -37 151q0 228 238 228h176q51 0 51 34v63h106v-112q0 -84 -119 -84h-177q-141 0 -141 -129q0 -94 60 -114l100 94l132 -116q32 37 32 115q0 36 -10 57h103q17 -27 17 -70q0 -98 -63 -199h-104z" />
    <glyph glyph-name="uni0E59" unicode="&#xe59;" horiz-adv-x="649" 
d="M574 0h-135l-141 356q-129 -3 -129 -124q0 -145 139 -145v-93q-31 -4 -56 -4q-217 0 -217 240q0 112 58 173q56 58 153 58h146l33 -76h84v127q0 29 4 46h100q-2 -12 -2 -38v-219h-154z" />
    <glyph glyph-name="uni0E5A" unicode="&#xe5a;" horiz-adv-x="739" 
d="M693 0h-132v300q-45 -28 -77 -35q-14 -4 -42 -4v-261h-132v300q-51 -34 -84 -39q-33 -2 -58 4q-71 15 -100 64q-25 43 -25 126v97h129v-86q0 -57 10 -80q11 -28 42 -28q54 0 88 59v135h130v-120q0 -62 33 -74q53 0 87 59v135h131v-552z" />
    <glyph glyph-name="uni0E5B" unicode="&#xe5b;" horiz-adv-x="1202" 
d="M1177 196h-173q-42 0 -57 29l-25 45l-72 -150h-79l-68 128q-47 -112 -143 -176q-95 -64 -211 -64q-131 0 -216 70q-93 76 -93 209q0 108 73 180q73 73 185 73q111 0 176 -62q60 -58 67 -156h-99q-7 53 -41 86q-39 37 -103 37q-69 0 -111 -47q-40 -45 -40 -110
q0 -95 60 -146q55 -46 146 -46q103 0 187 73q82 71 121 190h78l72 -137l67 138h82l42 -66q9 -17 40 -17h135v-81z" />
    <glyph glyph-name="zerowidthnonjoiner" unicode="&#x200c;" 
 />
    <glyph glyph-name="zerowidthjoiner" unicode="&#x200d;" 
 />
    <glyph glyph-name="lefttorightmark" unicode="&#x200e;" 
 />
    <glyph glyph-name="righttoleftmark" unicode="&#x200f;" 
 />
    <glyph glyph-name="minute" unicode="&#x2032;" horiz-adv-x="390" 
d="M222 393h-76v109l10 95h102l-11 -93z" />
    <glyph glyph-name="second" unicode="&#x2033;" horiz-adv-x="411" 
d="M146 393h-75v109l10 95h102l-11 -93zM312 393h-75v109l9 95h102l-11 -93z" />
    <glyph glyph-name="uni2113" unicode="&#x2113;" horiz-adv-x="596" 
d="M500 41q-69 -51 -170 -51q-179 0 -179 142v62q-43 -6 -71 -9v76q38 4 71 12v219q0 73 43 120q44 48 113 48q158 0 158 -189q0 -182 -215 -255v-70q0 -71 92 -71q64 0 114 32zM250 302q118 56 118 167t-58 111q-60 0 -60 -104v-174z" />
    <glyph glyph-name="estimated" unicode="&#x212e;" horiz-adv-x="773" 
d="M681 120q-93 -131 -291 -131q-173 0 -272 105q-88 94 -88 231q0 135 85 223q96 101 273 101q173 0 267 -93q88 -87 88 -233v-17h-582v-154q0 -58 84 -96q71 -33 146 -33q152 0 231 97h59zM614 341v155q0 54 -71 88q-65 30 -155 30q-86 0 -153 -32q-74 -36 -74 -90v-151
h453z" />
    <glyph glyph-name="minus" unicode="&#x2212;" horiz-adv-x="596" 
d="M511 223h-427v111h427v-111z" />
    <glyph glyph-name="dottedcircle" unicode="&#x25cc;" horiz-adv-x="553" 
d="M297 513q0 -21 -20 -21t-20 21t20 21t20 -21zM205 493q0 -21 -20 -21t-20 21t20 21t20 -21zM389 493q0 -21 -20 -21t-20 21t20 21t20 -21zM131 442q0 -21 -20 -21t-20 21t20 21t20 -21zM463 442q0 -21 -20 -21t-20 21t20 21t20 -21zM83 370q0 -21 -20 -21t-20 21t20 21
t20 -21zM511 370q0 -21 -20 -21t-20 21t20 21t20 -21zM65 282q0 -21 -20 -21t-20 21t20 21t20 -21zM529 282q0 -21 -20 -21t-20 21t20 21t20 -21zM297 51q0 -21 -20 -21t-20 21t20 21t20 -21zM205 71q0 -21 -20 -21t-20 21t20 21t20 -21zM389 71q0 -21 -20 -21t-20 21t20 21
t20 -21zM131 122q0 -21 -20 -21t-20 21t20 21t20 -21zM463 122q0 -21 -20 -21t-20 21t20 21t20 -21zM83 194q0 -21 -20 -21t-20 21t20 21t20 -21zM511 194q0 -21 -20 -21t-20 21t20 21t20 -21z" />
    <glyph glyph-name="uni0E10.alt1" unicode="&#xf700;" horiz-adv-x="563" 
d="M248 102q20 0 42 5q88 19 88 169q0 172 -155 172q-92 0 -164 -40l-43 94q96 48 227 48q42 0 69 -5l223 65v-111l-85 -15q83 -58 83 -208q0 -129 -80 -204q-78 -72 -205 -72h-116l-34 211h-59v102h174z" />
    <glyph glyph-name="uni0E34.alt1" unicode="&#xf701;" 
d="M-248 623h-385v101h385v-101z" />
    <glyph glyph-name="uni0E35.alt1" unicode="&#xf702;" 
d="M-248 623h-385v101h245v68h140v-169z" />
    <glyph glyph-name="uni0E36.alt1" unicode="&#xf703;" 
d="M-422 724q2 32 25.5 56.5t63.5 24.5q44 0 68.5 -26.5t24.5 -65.5q0 -38 -27 -64t-68 -26h-298v101h211zM-333 682q33 0 33 31q0 32 -33 32t-33 -32q0 -31 33 -31z" />
    <glyph glyph-name="uni0E37.alt1" unicode="&#xf704;" 
d="M-248 623h-385v101h129v68h99v-68h50v68h107v-169z" />
    <glyph glyph-name="uni0E48.alt1" unicode="&#xf705;" 
d="M-257 623h-138v163h138v-163z" />
    <glyph glyph-name="uni0E49.alt1" unicode="&#xf706;" 
d="M-225 623h-272v54q0 25 -23 25h-40v100h111q66 0 66 -69v-22h158v-88z" />
    <glyph glyph-name="uni0E4A.alt1" unicode="&#xf707;" 
d="M-211 623h-162v38q0 18 -7 28l-70 -62l-71 64q-7 -9 -7 -29v-39h-113v64q0 43 37 71q34 26 84 27l71 -68l71 68q45 -1 75 -21q31 -21 32 -56h60v-85z" />
    <glyph glyph-name="uni0E4B.alt1" unicode="&#xf708;" 
d="M-230 661h-71v-57h-120v57h-72v74h72v57h120v-57h71v-74z" />
    <glyph glyph-name="uni0E4C.alt1" unicode="&#xf709;" 
d="M-227 684h-98q-28 0 -28 -27v-34h-129v75q0 78 90 78h165v-92z" />
    <glyph glyph-name="uni0E48.alt2" unicode="&#xf70a;" 
d="M-48 623h-138v163h138v-163z" />
    <glyph glyph-name="uni0E49.alt2" unicode="&#xf70b;" 
d="M18 623h-321v56q0 23 -22 23h-42v100h110q68 0 68 -70v-20h207v-89z" />
    <glyph glyph-name="uni0E4A.alt2" unicode="&#xf70c;" 
d="M9 623h-217v39q0 19 -7 27l-77 -63l-79 65q-7 -9 -7 -28v-40h-113v64q0 43 36 71q35 26 84 27l80 -69l79 69q45 -1 74 -21q31 -21 33 -55h114v-86z" />
    <glyph glyph-name="uni0E4B.alt2" unicode="&#xf70d;" 
d="M-46 661h-71v-57h-120v57h-72v74h72v57h120v-57h71v-74z" />
    <glyph glyph-name="uni0E4C.alt2" unicode="&#xf70e;" 
d="M-31 684h-112q-28 0 -28 -27v-34h-129v75q0 78 90 78h179v-92z" />
    <glyph glyph-name="uni0E0D.alt1" unicode="&#xf70f;" horiz-adv-x="925" 
d="M878 179q0 -189 -241 -189q-116 0 -178 48q-62 49 -62 141v173q0 96 -102 96q-79 0 -109 -55l78 -43v-40q-52 -17 -52 -92v-78q0 -38 36 -38h43v-102h-122q-50 0 -81 29t-31 81v116q0 84 58 108l-84 55q18 73 94 118q73 43 169 43q116 0 183 -47q73 -51 73 -146v-176
q0 -89 87 -89q86 0 86 89v359h155v-361z" />
    <glyph glyph-name="uni0E31.alt1" unicode="&#xf710;" 
d="M-38 623h-411q-37 0 -60 23q-22 24 -22 62v78h128v-36q0 -26 27 -26h338v-101z" />
    <glyph glyph-name="uni0E4D.alt1" unicode="&#xf711;" 
d="M-248 702q0 -45 -34 -71q-32 -24 -81 -24t-81 24q-34 26 -34 71t34 72q33 26 81 26t81 -26q34 -27 34 -72zM-363 668q36 0 36 34t-36 34q-37 0 -37 -34t37 -34z" />
    <glyph glyph-name="uni0E47.alt1" unicode="&#xf712;" 
d="M-249 607l-100 37l-94 -40q-60 0 -97 26q-43 29 -43 85q0 50 37 81q39 32 108 32h270v-80h-262q-52 0 -52 -33q0 -28 34 -36l95 38l104 -36v-74z" />
    <glyph glyph-name="uni0E48.alt3" unicode="&#xf713;" 
d="M-251 836h-134v124h134v-124z" />
    <glyph glyph-name="uni0E49.alt3" unicode="&#xf714;" 
d="M-138 836h-292v57q0 22 -21 22h-36v74h90q73 0 73 -58v-20h186v-75z" />
    <glyph glyph-name="uni0E4A.alt3" unicode="&#xf715;" 
d="M-72 836h-174v43q0 18 -7 28l-64 -53l-67 53q-7 -10 -7 -28v-43h-98v59q0 42 38 66q34 22 84 23l50 -47l53 47q97 -4 112 -74h80v-74z" />
    <glyph glyph-name="uni0E4B.alt3" unicode="&#xf716;" 
d="M-194 884h-65v-48h-118v48h-64v58h64v48h118v-48h65v-58z" />
    <glyph glyph-name="uni0E4C.alt3" unicode="&#xf717;" 
d="M-232 852h-77q-36 0 -36 -29v-30h-124v60q0 73 92 73h145v-74z" />
    <glyph glyph-name="uni0E38.alt1" unicode="&#xf718;" 
d="M-49 -411h-151v61q0 31 -29 31h-44v102h116q62 0 85 -18q23 -17 23 -64v-112z" />
    <glyph glyph-name="uni0E39.alt1" unicode="&#xf719;" 
d="M-49 -328q0 -102 -166 -102q-70 0 -114 22q-45 22 -45 60v34h-50v97h99q70 0 70 -64v-35q0 -30 39 -30t39 30v99h128v-111z" />
    <glyph glyph-name="uni0E3A.alt1" unicode="&#xf71a;" 
d="M-43 -285q0 -35 -23 -58q-24 -24 -59 -24t-59 24q-23 23 -23 58t23 59q24 23 59 23t59 -23q23 -24 23 -59z" />
    <glyph glyph-name="uni0E0E.alt1" unicode="&#xf71b;" horiz-adv-x="620" 
d="M571 -168h-150q-59 55 -114 55q-53 0 -59 -55h-118q18 149 152 149q77 0 135 -42v413q0 96 -106 96q-86 0 -118 -55l80 -43v-40q-36 -15 -36 -68v-137q0 -105 -104 -105h-112v102h31q31 0 31 36v96q0 73 41 100l-86 55q19 72 97 118q76 43 172 43q117 0 187 -47
q77 -51 77 -146v-525z" />
    <glyph glyph-name="uni0E0F.alt1" unicode="&#xf71c;" horiz-adv-x="620" 
d="M571 -149h-161l-88 33q-40 -43 -107 -43q-59 0 -106 26q1 1 17 44q16 44 17 44q29 -22 68 -22q61 0 84 65l122 -51v405q0 96 -106 96q-86 0 -118 -55l80 -43v-40q-36 -15 -36 -68v-137q0 -105 -104 -105h-112v102h31q31 0 31 36v96q0 73 41 100l-86 55q19 72 97 118
q76 43 172 43q117 0 187 -47q77 -51 77 -146v-506z" />
    <glyph glyph-name="uni0E2C.alt1" unicode="&#xf71d;" horiz-adv-x="696" 
d="M600 0h-140l-105 238l-104 -238h-139l-77 540h147l37 -384l92 200h89l93 -200l17 207q0 48 -82 54v50l101 105h153l-110 -119q75 -17 75 -86l-1 -17z" />
    <glyph glyph-name="sfthyphen" unicode="&#xad;" horiz-adv-x="417" 
d="M367 198h-317v110h317v-110z" />
    <glyph glyph-name="nonbreakingspace" unicode="&#xa0;" horiz-adv-x="260" 
 />
    <glyph glyph-name="uni03BC" unicode="&#x3bc;" horiz-adv-x="599" 
d="M593 15q-77 -25 -121 -25q-56 0 -87 52q-38 -48 -102 -48q-49 0 -75 34v-251h-155v684h155v-286q0 -83 87 -83q58 0 88 51v318h155v-329q0 -29 26 -29q11 0 29 8v-96z" />
    <glyph glyph-name="pi" unicode="&#x3c0;" horiz-adv-x="582" 
d="M564 13q-50 -23 -106 -23q-114 0 -114 109v229h-117v-328h-151v328h-66v113h556v-113h-72v-193q0 -29 27 -29q22 0 43 13v-106z" />
    <glyph glyph-name="nonmarkingreturn" horiz-adv-x="833" 
 />
    </font>
</defs>
</svg>
